This file was generated by Ched 2.7.0.0.
#TITLE ""
#ARTIST ""
#DESIGNER ""
#DIFFICULTY 0
#PLAYLEVEL
#SONGID ""
#WAVE ""
#WAVEOFFSET 0
#JACKET ""
#REQUEST "ticks_per_beat 480"
#00002: 4
#BPM01: 145
#00008: 01
#TIL00: ""
#VOLUME: ""
#HISPEED 00
#MEASUREHS 00
#00019:14
#00113:14
#0101a:14
#01010:41
#01114:14
#01218:14
#01312:14
#0141a:14
#01514:14
#01618:14
#01712:14
#02114:14
#02218:14
#02712:0016
#02718:26
#02710:41
#03018:1616
#03012:00160016
#03418:1616
#03412:00160016
#03112:0016
#03118:26
#0431a:14
#04314:0014
#0441a:14
#04512:14
#04518:0014
#04612:14
#0471a:14
#04714:0014
#0481a:14
#04912:14
#04918:0014
#04910:41
#05012:14
#06118:0016
#06112:26
#0611f:21
#06412:1616
#06418:00160016
#06812:1616
#06818:00160016
#06518:0016
#06512:26
#07118:16
#07212:16
#07612:16
#07718:16
#07812:16
#0511f:11
#05919:24
#05913:24
#07918:26
#06210:41
#01810:41
#03710:41
#0023a0:14
#0033a0:24
#004340:14
#005340:24
#006380:14
#007380:24
#008320:14
#009320:24
#018380:14
#0193a0:34
#020380:24
#023340:14
#024320:34
#025340:34
#026340:24
#028380:1626
#029320:1626
#032380:1626
#033320:1626
#035380:16
#036380:26
#037320:14
#038320:24
#039380:14
#040380:24
#041340:14
#042340:24
#0513a0:14
#0523a0:24
#053340:14
#054340:24
#055380:14
#056380:24
#057320:14
#058320:24
#059390:14
#060390:24
#059331:14
#060331:24
#062321:1626
#063381:1626
#066321:1626
#067381:1626
#069321:16
#070321:26
#073381:16
#074381:36
#075381:26
