This file was generated by Ched 2.7.0.0.
#TITLE ""
#ARTIST ""
#DESIGNER ""
#DIFFICULTY 0
#PLAYLEVEL
#SONGID ""
#WAVE ""
#WAVEOFFSET 0
#JACKET ""
#REQUEST "ticks_per_beat 480"
#00002: 4
#BPM01: 145
#00008: 01
#TIL00: ""
#VOLUME: ""
#HISPEED 00
#MEASUREHS 00
#0001b:0000001300000013
#00012:0000001322220013
#0001c:2222000000000000
#00016:00220022000000000000000000000000
#00018:00000000000000000022002200000000
#00317:00000014000000001300000000000000
#00319:0000000000130000
#0031b:00000013
#00316:1414000000001300
#00315:00140000000000000000000000002300
#0031a:00140000
#00312:0013
#00314:0000000000130000
#00318:00000000000000000000000000000023
#0051b:0013130000000000
#00516:00000013001300000000000000000000
#00512:0000000013000013
#00518:0000000000130000
#00515:00000013
#00412:1313000000000000
#00417:00130013000000000000000000000000
#01012:2300001300000013
#01018:0013
#01015:0000000000130000
#0101b:23000013
#01017:00000000000000000000000000000013
#01010:41
#01116:0013000000000000
#01112:00000013
#01117:0000000000130013
#01212:0013000000001300
#0121b:0000001300000000
#01218:0013
#01215:0000000000130000
#01219:0000000000000013
#01217:00000013
#0131b:1300000000130000
#01314:0013000000000000
#01312:00130000
#01318:0000001313001300
#01315:00000000000000130000000000001300
#01316:13
#01317:00130000
#0141b:000000130000000000000000130000000000000000000033
#01417:0000001300001300
#01412:000000000000000000130000000000000033000000000000
#01416:0013
#01514:0000000000130000
#01512:000000000033000000000000000000000000130000000000
#0151b:000000000000000000000033000000000000000000130000
#01516:1300000013000013
#01517:00130013
#0161b:0000000000130000
#01618:00000013
#01615:0000000000000013
#01715:0013000000130000
#01718:00000000000013000000000000000026
#0171b:23232323
#01712:23232323
#01816:00130000
#01812:2613
#0181b:0000130000130000
#01818:00000013
#01815:0000000000000013
#01817:0013
#01819:0013001300000000
#01810:41
#01917:13
#01919:0013000000000000
#0191b:00130013
#01912:1300001300000000
#01915:0013
#01918:000000000000000000000013000000130000000000000000
#01916:00130013
#02012:130000000000000000000000130000000000000000000033
#0201b:0000001300001300
#02017:000000000000000000000000130000000000000000000033
#02016:000000000000000000130000000000000033130000000000
#02115:0013000000000000
#02118:00130000
#0211b:0000001300001300
#02117:0000000000130023
#02116:0000001300001300
#02112:0000000000000023
#0221b:000000001300001300001300
#02215:0000001300130013
#02212:000000000000000000000013000000000013000000000013
#02218:00001313
#02318:13130000
#02315:0013000000000000
#0231b:0000001300000000
#02317:0000000000000013
#02312:0000001300000013
#0241b:130000000000000000000033000000000000000013000000
#02417:0000130000130000
#02416:1313
#02412:000000000033000000000000000033000000000000000013
#02517:130000000000130000000000130000000033000000000000
#0251b:000013000000000013000000000000130000000000000000
#02516:0013001300000013
#02512:000000000013000000000013000000000000130000000033
#02615:00000000140000000000000000130000
#02618:0000000000000013
#0261a:14
#02612:23
#02715:0000001300001300
#0271b:2313
#02718:0000000000130000
#02712:2300000013000013
#02710:41
#02818:0000001300130000
#0281b:0013
#02815:00000013
#02817:0000000000000013
#02812:0000000013000013
#0291b:13001323
#02915:0000001300000000
#02918:0000000000130013
#02916:13000014
#02912:0024
#0301b:13231313
#03018:0013001300130000
#03016:00140024
#03012:2424
#03112:1313
#03118:0000001300001300
#0311b:0000000013000013
#03115:0000000000130013
#03116:24
#03215:0000001300001300
#0321b:0000000013000013
#03218:0000000000130000
#03216:000000000000000000000013
#03212:0013
#03312:000013000000000000000000000000130000000000000000
#03317:0013000000000000
#0331b:0000001300001300
#03319:0000000000000013
#03316:00000013
#03314:0000000000000013
#03417:1313
#0341b:00130000
#03419:0013001300000000
#03416:00130013
#03412:1313
#03512:00000013000000000000000013000000
#0351b:00000000000013000013000000000000
#03516:00000000000013000013000000000000
#03517:13000013000000000000000013000000
#03612:13000000000000000000001300000000
#03618:00000013000000130000000013000000
#03615:00000000001300001300000000000000
#0361b:13000000000000000013000000000000
#04218:13
#04215:00130000000000000000000000000000
#0431b:000000001300130000000033000000000000130000000033
#04315:230000000013000000000000000000000000000000000000
#04317:0000001300000013
#04316:000000000000000000000000130000000033000000000000
#04312:0000000000130000
#04318:23
#04417:00000013000013000000000000000000
#04412:0000001300000000
#04416:13
#0451b:13000000001300000000000000001300
#04515:00130000001300000000000000000000
#04518:0013000000000000
#04512:00000013000000000000000000000000
#04516:0000000000000013
#04616:0013000000000000
#04617:13
#0461b:00000013
#04712:1313
#04715:0013001300000013
#04718:00000000130000000000000000130013
#04815:13130000
#04818:0013001300000000
#0481b:0013
#04912:1313000013130000
#04918:00130013000000000013001300000000
#04915:0000131300001313
#0491b:00000000001300130000000000130013
#04910:41
#0501b:00001300000000001300000000000013
#05015:00000013000000130000000000001300
#05018:00000000130013000000000000130000
#05012:000033003300000000000000000000130000000000000000000000000000000000000000130000000000000000000000
#05017:0000000000000000000000000000000000333333333333330000000000000000
#05112:1313
#0511b:0013000013000013
#05118:00130013
#05115:000000000000000000130000000000130000000000000013
#0511f:11
#05218:13000013
#05215:0000130000000013
#05212:0000001300000000
#0521b:0013001300130000
#05312:130000000033000000000000130000000000000000000000
#05316:0013000000000000
#05315:0000000000130000
#05318:00000013
#0531b:130000000000130000000033000000000000000000130000
#05317:0000001300000000
#05416:0013000000000000
#0541b:0000000000130000
#05417:13000013
#05418:000000000000000000000013
#05415:000000000000000000000000000000000000000000000013
#05412:0000001300001300
#05518:1300000000000013
#0551b:00000000001300000000000013000000
#05512:0000000000130000
#05515:00000013
#05612:131300000000
#05615:001300000000000000000000
#0561b:130000000000000000000013000000000000000000000000
#05614:0000000000000013
#05617:001300000000
#05616:000000000000000000000013000000000000000000000000
#05716:130000000000000000000033000000000000000000000000
#0571b:1313
#05715:0000000000000013
#05712:00130000
#05717:000000000033000000000000000000000000000000000000
#06012:000000000013000000000000000013000000000013000000
#06015:000000000000000000130000000000000013000000000013
#06018:1313000000230023
#0601b:000000000000000000000013000000000000230000000000
#0711b:00000000001300001300000000000000
#07116:00000000000000000013000000000000
#07112:00000000130000000000001300000000
#07117:00000013
#07115:1313001300000000
#07118:00130013000000000000000000000000
#07615:00130000000000001300000013000000
#07618:00001300000000000013001300000000
#07612:00000000130000000000130000000013
#0761b:00000000130000130000000000130000
#07716:000000000000130000000014000000000000000000000000
#07712:000000000000001400130000
#0771a:001400
#07718:000000000000000000000000000000000000000013000013
#07715:0000000000000013
#0771b:003333003333000000000000000000003333000000000000
#07815:1313000000230023
#0781b:000000000013000000000000000013000000000013000000
#07818:000000000000000000130000000000000013000000000013
#07812:000000000000000000000013000000000000230000000000
#00216:1414141414141414
#00215:00140000001400000014000000140000
#00217:00000014000000140000001400000014
#0021a:24
#00716:1414000013000000
#00714:0000000000130000
#00712:00140013
#00717:00140000000000000000000013000000
#00715:00000014000000000000000000000023
#0071b:0013
#00719:0000000000130000
#00718:0000000000000023
#00616:1414141414141414
#00617:00140000001400000014000000140000
#00615:00000014000000140000001400000014
#00612:24
#00912:0013130000000000
#00917:00000013001300000000000000000000
#0091b:0000000013000013
#00915:0000000000130000
#00918:00000013
#0371b:13000013000000000000000013000000
#03712:00000000000013000013000000000000
#03717:00000000000013000013000000000000
#03716:13000013000000000000000013000000
#03710:41
#0381b:13000000000000000000001300000000
#03815:00000013000000130000000013000000
#03818:00000000001300001300000000000000
#03812:13000000000000000013000000000000
#03912:13000013000000000000000013000000
#0391b:00000000000013000013000000000000
#03916:00000000000013000013000000000000
#03917:13000013000000000000000013000000
#04012:13000000000000000000001300000000
#04018:00000013000000130000000013000000
#04015:00000000001300001300000000000000
#0401b:13000000000000000013000000000000
#0411b:13000013000000000000000013000000
#04112:00000000000013000013000000000000
#04117:00000000000013000013000000000000
#04116:13000013000000000000000013000000
#05812:130000000033000000000000130000000033000000000000
#05816:0013000000130000
#05817:000000000000130000000033000000000000130000000033
#0581b:1300001300000013
#05912:14
#05917:0014
#06118:2600001300001300
#06112:0013
#06115:0000000000130000
#0611b:0000000013000013
#0611f:21
#06215:0000001300130000
#06212:0013
#06218:00000013
#06216:0000000000000013
#0621b:0000000013000013
#06210:41
#06312:13001323
#06318:0000001300000000
#06315:0000000000130013
#06316:00000014
#06317:13
#0631a:0024
#06412:13231313
#06415:0013001300130000
#06416:00140024
#0641a:2424
#0651b:1313
#06515:0000001300001300
#06512:0000000013000013
#06518:0000000000130013
#06516:24
#06618:0000001300001300
#06612:0000000013000013
#06615:0000000000130000
#06617:000000000000000000000013
#0661b:0013
#0671b:000013000000000000000000000000130000000000000000
#06716:0013000000000000
#06712:0000001300001300
#06714:0000000000000013
#06717:00000013
#06719:0000000000000013
#06816:1313
#06812:00130000
#06814:0013001300000000
#06817:00130013
#0681b:1313
#06912:0013
#06915:13
#06919:00130013
#0691b:0013
#07018:13
#0701b:0013
#07014:00130013
#07012:0013
#0731b:0013
#07318:13
#07314:00130013
#07312:0013
#07315:13
#07415:13
#07412:0013
#07419:00130013
#0741b:0013
#0011b:13
#00116:13
#00117:0000000000230000
#00119:000000000023
#00112:0000000000230000
#00114:000000000023
#0081b:1313000000000000
#00816:00130013000000000000000000000000
#07215:0000001300000000
#07218:0000000000000013
#07512:00000000001300001300000000000000
#07517:00000000000000000013000000000000
#0751b:00000000130000000000001300000000
#07516:00000013
#07518:1313001300000000
#07515:00130013000000000000000000000000
#07912:26
#05752:000000000000530000000000000000000013000000000000
#0575b:530000000000000000000000000000000013000000000000
#0285b:0013000000000000
#02856:0013000000000000
#02857:0000000000000053
#02852:0000000000000053
#0025a:14
#00256:5454545454545454
#00255:00240000002400000024000000240000
#00257:00000024000000240000002400000024
#00157:0000000000130000
#00152:0000000000130000
#00154:000000000013
#00159:000000000013
#0015b:53
#00156:53
#00356:5454140000000000
#00355:00240000000000000000000000000000
#00357:00000024000000000000000000000000
#0035a:00140000
#00358:00000000000000000000000000000013
#00656:6464646464646464
#00657:00240000002400000024000000240000
#00655:00000024000000240000002400000024
#00652:14
#00756:6464140000000000
#00757:00240000000000000000000000000000
#00755:00000024000000000000000000000013
#00752:00140000
#01052:13
#0105b:13
#01057:00000000000000000000000000000053
#0115b:0013000000000000
#01156:0013000000000000
#01252:0013000000000000
#01257:0013000000000000
#01452:0013000000001300
#0145b:0013000000000000
#01456:0053
#01457:00000053
#01355:0000000000000053
#0155b:1300000013000053
#01556:5300000000000053
#01557:00530000
#01552:00130000
#01652:0013000000000000
#01657:0013000000000000
#0175b:13001313
#01752:00130013
#01758:00000000000000000000000000000046
#01852:36
#02052:1353
#02057:13
#02056:00000053
#0205b:00000053
#0195b:00000053
#02156:0000005300000000
#02157:0000000000000013
#02152:0000000000000013
#02358:0000000000130000
#02355:0000000000130000
#0235b:0000005300000000
#02352:0000005300000000
#02456:530000530013
#0245b:000000000013
#02457:0000530000530000
#02557:0053
#02552:00000053
#0255b:0000000000230000
#02556:0000000000000023
#02652:33
#0265a:54
#02655:00240000
#02658:0000000000000053
#0275b:13
#02752:13
#0295b:23
#02956:23000014
#02952:0014
#0305b:00000053
#03056:00140014
#03052:1414
#03156:14
#03258:0013000000000000
#03252:0013000000000000
#03357:0053000000000000
#0335b:0000002300000000
#03452:1313
#03456:00130053
#0345b:00000013
#03457:0053
#03552:13000013000000000000000000000000
#03557:13000013
#0355b:0000001300000000
#03556:00000000000000000013000000000000
#0365b:00000000000000000013000000000000
#03658:00000013
#0375b:00000013000000000000000000000000
#03752:0000001300000000
#03757:00000000000000000013000000000000
#03756:13000013
#03852:00000000000000000013000000000000
#03855:00000013
#03952:00000013000000000000000000000000
#0395b:0000001300000000
#03956:00000000000000000013000000000000
#03957:13000013
#0405b:00000000000000000013000000000000
#04058:00000013
#0415b:00000013000000000000000000000000
#04152:0000001300000000
#04157:00000000000000000013000000000000
#04156:13000013
#04358:13
#04355:13
#0435b:00530053
#04357:0000002300000023
#04356:0053
#04352:0000000000230000
#04456:5300000000130000
#04452:00000013000053000000000000000000
#04457:00000013000053000000000000000000
#0445b:0000000000130000
#04558:0000000000130000
#04552:0000000000130000
#0455b:0000000000000053
#04657:23
#0465b:00000053
#0475b:00000000000000000000001300000000
#04756:00000000000000000000001300000000
#04752:0053
#0485b:0063
#04852:00000000000000000000001300000000
#04857:00000000000000000000001300000000
#06158:16
#05258:63
#0525b:0023001300000000
#05252:0000001300000000
#05352:53
#05356:0023000000000000
#0535b:0000630000000053
#05357:0000002300000000
#05452:0000002300000000
#05457:23
#05456:0053000000000000
#05558:53
#0555b:00000000002300000000000000000000
#0565b:000000000000000000000023000000000000000000000000
#05656:000000000000000000000023000000000000000000000000
#05655:002300000000000000000000
#05657:005300000000
#05652:535300000000
#05852:6363
#05856:0023000000230000
#05857:00630063
#0585b:0000002300000023
#05952:54
#05957:0024
#06256:0000000000000063
#0625b:0000000000000063
#06252:0013000000000000
#06257:0013000000000000
#06352:23
#06356:00000014
#06357:23
#0635a:0014
#06456:00140014
#06452:00000063
#0645a:1414
#06756:0063000000000000
#06752:0000002300000000
#06856:0063
#06857:00130063
#0685b:1313
#06852:00000013
#06556:14
#06655:0013000000000000
#0665b:0013000000000000
#0695b:13
#06955:53
#06952:0023
#07058:53
#0705b:0023
#07157:00000013
#07156:00000000000000000013000000000000
#0735b:0023
#07358:63
#07455:63
#07452:0023
#07952:16
#00457:0000000000130000
#00856:0000000000130000
#06052:000000000013000000000000000000000000000000000000
#0605b:000000000000000000000013000000000000000000000000
#07557:00000000000000000013000000000000
#07556:00000013
#0785b:000000000013000000000000000000000000000000000000
#07852:000000000000000000000013000000000000000000000000
#0505b:0053
#001360:13
#001320:0000000053230000
#0013b1:13
#001371:0000000053230000
#002361:1454545454545454
#002351:00540000005400000054000000540000
#002371:00000054000000540000005400000054
#003361:5454240000000000
#003351:00540000000000000000000000000000
#003371:00000054000000000000000000000000
#004321:00132300
#004341:00000000003300330000000000000000
#004361:0000003300000000
#0043b0:0013
#004390:00000000000000000033000000000000
#004370:0000000000230000
#0053b0:0000001323000000
#006360:1454545454545454
#006370:00540000005400000054000000540000
#006350:00000054000000540000005400000054
#007360:5454240000000000
#007370:00540000000000000000000000000000
#007350:00000054000000000000000000000000
#0083b0:00132300
#008390:00000000003300330000000000000000
#008370:0000003300000000
#008321:0013
#008341:00000000000000000033000000000000
#008361:0000000000230000
#009321:0000001323000000
#010371:00000000000000000000000000000013
#0113b1:0023000000000000
#011371:00000000000000000000000000000013
#012371:0023000000000000
#013351:0000000000000013
#014321:0023000000000000
#014361:0013
#014321:000000000000000000000000000000000033230000000000
#014370:00000013
#0143b0:000000000000000000000000000000000000000000000033
#0153b0:23
#015361:13
#015321:000000000033230000000000000000000000000000000000
#015370:00130000
#0153b0:000000000000000000000033230000000000000000000000
#0153b0:0000000000000013
#016370:0023000000000000
#015361:0000000000000013
#016321:0023000000000000
#0193b1:00000013
#020371:23
#020321:000000000000000000000000130000000000000000000033
#020361:000000000000000000000000000000000033330000000000
#021321:23
#0203b0:00000013
#020370:000000000000000000000000000000000000000000000033
#021370:23
#021360:0000001300000000
#021320:0000000000230000
#023320:0000001300000000
#023350:0000000000230000
#0233b1:0000001300000000
#023381:0000000000230000
#024361:13
#024321:000000000033230000000000000000000000000000000000
#024370:00130000
#0243b0:000000000000000000000033230000000000000000000000
#024361:0013
#024321:000000000000000000000000000033230000000000000000
#024370:0000000000130000
#0243b0:000000000000000000000000000000000023000000000000
#024361:000000000000000000000000000000000013000023000000
#025371:000000000000000000000000130000000033230000000000
#0253b1:0000000000530000
#025320:000000000000000000000000000000000000130000000033
#025360:0000000000000053
#026320:23
#0263a1:1424
#026351:00540000
#026381:0000000000000013
#0273b1:23
#0283b1:1323000000000000
#028360:1323000000000000
#028320:0000000000000013
#029360:53
#029320:0023000000000000
#028371:0000000000000013
#0293b1:53
#029371:0023000000000000
#0303b1:00000013
#031361:24
#032381:1323000000000000
#032320:1323000000000000
#033370:0013000000230000
#0333b0:0000005300000000
#034370:0013
#0343b0:00000023
#034361:00000013
#035321:23
#042381:000000135300000000000000000000000000000000000000
#042391:000000000000005300005300000000000000000000000000000000000000000000000000000000000000000000000000
#0423a1:000000000000000000530000530053000000000000000000000000000000000000000000000000000000000000000000
#0423b1:000000000000000000000053005300230000000000000000000000000000000000000000000000000000000000000000
#042320:000000000000000000000000000000130053000000000000000000000000000000000000000000000000000000000000
#042330:000000000000000000000000000000005300005300000000000000000000000000000000000000000000000000000000
#042340:000000000000000000000000000000000000530000530053000000000000000000000000000000000000000000000000
#042350:000000000000000000005353230000000000000000000000
#042381:000000000000000000000000135300000000000000000000
#042391:000000000000000000000000000000000000000000000000005300005300000000000000000000000000000000000000
#0423a1:000000000000000000000000000000000000000000000000000000530000530053000000000000000000000000000000
#0423b1:000000000000000000000000000000000000000000000000000000000053005300230000000000000000000000000000
#042320:000000000000000000000000000000000000000000000000000000000000000000130053000000000000000000000000
#042330:000000000000000000000000000000000000000000000000000000000000000000005300005300000000000000000000
#042340:000000000000000000000000000000000000000000000000000000000000000000000000530000530053000000000000
#042350:000000000000000000000000000000000000005353230000
#042381:00000000000000000000000000001353
#042391:0000000000000000000000000000000000000000000000000000000000530053
#043381:23
#0433b1:000000000000130000000033230000000000000000000000
#043371:0000005300000000
#043360:000000000000000000000000130000000033230000000000
#043320:0000000000530000
#0433b1:000000000000000000000000000000000000130000000033
#043371:0000000000000053
#0443b1:23
#044360:13
#044320:00000023000000000000000000000000
#044320:0000001300000000
#044360:0000000000230000
#044371:0000001300000000
#0443b1:0000000000230000
#045321:00000000000000133300230000000000
#045331:0000000000000000000000000000003300000000000000000000000000000000
#045380:00000000000000133300230000000000
#045370:0000000000000000000000000000003300000000000000000000000000000000
#0453b0:0000000000000013
#046370:53
#0463b0:0023000000000000
#046370:0000001300000000
#0463b0:00000033
#047370:23
#046321:0000001300000000
#046361:00000023
#0473b0:00000000000000001300002300000000
#047321:0013
#047361:00000000000000000000002300000000
#048321:00000000000000001300002300000000
#0483b0:0013
#048370:00000000000000000000002300000000
#050320:133333000000000000000000000000000000000000000000
#050350:0023000000000000
#0503b0:0013
#050370:0000000000000000000000000000000000333333333333332300000000000000
#052380:13230000
#0523b0:0053000000000000
#053320:130000000033230000000000000000000000000000000000
#053360:0053000000000000
#0533b1:000000000000130000000033230000000000000000000000
#053371:0000005300000000
#0533b1:0000000000000013
#054371:53
#0543b1:0023000000000000
#054360:0013000000230000
#054320:0000005300000000
#055380:1300000000230000
#0553b0:00000000005300000000000000000000
#056320:130033000000000000230000
#056350:005300000000000000000000
#056360:000000000000000000000053000000000000000000000000
#056371:000013000000000000230000
#0563b1:000000000000000000000053000000000000000000000000
#0573b1:13
#057371:000000000033230000000000000000000000000000000000
#057320:00130000
#057360:000000000000000000000033230000000000000000000000
#057320:000000000000000000000000000000130023000000000000
#0573b1:000000000000000000000000000000130023000000000000
#058321:130000000033230000000000000000000000000000000000
#058361:0053000000000000
#058370:000000000000130000000033230000000000000000000000
#0583b0:0000005300000000
#058321:000000000000000000000000130000000033230000000000
#058361:0000000000530000
#058370:000000000000000000000000000000000000130000000033
#0583b0:0000000000000053
#059370:23
#059321:14
#059371:0054
#060321:24
#060351:000013230000000000000000000000000000000000000000
#060381:000000000000000013230000000000000000000000000000
#062321:1323000000000000
#062370:1323000000000000
#0623b0:0000000000000013
#063370:53
#0633b0:0023000000000000
#062361:0000000000000013
#063321:53
#063361:0023000000000000
#064321:00000013
#065361:24
#066351:1323000000000000
#0663b0:1323000000000000
#067360:0013000000230000
#067320:0000005300000000
#068360:0013
#068320:00000023
#068371:00000013
#0693b1:23
#069350:13
#069320:0053
#070350:23
#070381:13
#0703b1:0053
#071381:23
#0723b1:13
#072381:00332300000000000000000000000000
#072350:0013000000000000
#072320:00000033230000000000000000000000
#0723b1:00130000
#072381:00000000003323000000000000000000
#072321:0013
#072351:00000000000000000033230000000000
#072380:0000000000130000
#0723b0:00000000000000000000003323000000
#072321:00000013
#072351:00000000000000000000000000332300
#073381:13
#0733b1:0053
#074381:23
#074350:13
#074320:0053
#075350:23
#0773b0:133333003333230000000000000000000000000000000000
#077370:0033000000000000
#077370:0000000000130000
#0773b0:000000000000000000000000000000003333230000000000
#078380:000013230000000000000000000000000000000000000000
#078350:000000000000000013230000000000000000000000000000
