This file was generated by Ched 2.7.0.0.
#TITLE ""
#ARTIST ""
#DESIGNER ""
#DIFFICULTY 0
#PLAYLEVEL
#SONGID ""
#WAVE ""
#WAVEOFFSET 0
#JACKET ""
#REQUEST "ticks_per_beat 480"
#00002: 4
#BPM01: 145
#00008: 01
#TIL00: ""
#VOLUME: ""
#HISPEED 00
#MEASUREHS 00
#0001b:0000001300000000
#00012:0000000000000013
#0001a:2222000000000000
#00016:00220022000000000000000000000000
#00014:0000000022220000
#00018:00000000000000000022002200000000
#00518:0000000000130000
#00515:00000013
#0051b:0000000000000013
#01012:0000001300000000
#01018:00000000000000001300000000000013
#01015:0000000000130013
#0101b:23000013
#01010:41
#0111b:00000013
#01115:0000000000130013
#01212:0000001300000000
#01215:0013
#01218:0000000000130013
#0121b:00000013
#01312:0013000000000000
#01315:13000000130000130000130000001300
#01318:0000001313001300
#01418:0000001300000000
#01415:000000000000000000000000130000000000000000000033
#01412:000000000000000000000000000000000033130000000000
#01518:0000000000130000
#0151b:0000000000000013
#01515:130000000000000000000033000000000000130000000000
#01512:000000000033130000000000000000000000000000000000
#01612:0000000000130000
#01618:00000013
#01615:0000000000000013
#01715:0013000000130000
#01718:00000000000013000000000000000024
#0171b:2323
#01712:00230023
#01812:0000000000130000
#01815:0000001300001300
#01818:0000000013000013
#0181b:00130000
#01814:24
#01810:41
#0191b:13000013
#01915:0013000013001300
#01912:0000001300000000
#01918:0000130000130000
#02015:0000001300000000
#0201b:000000000000000000000000000000000033130000000000
#02018:000000000000000000000000130000000000000000000033
#02115:0013000000000000
#02118:00130013
#02112:0000001300000023
#0221b:0000001300000000
#02218:0013
#02215:0000000000130013
#02212:00000013
#02318:13130000
#0231b:0013000000000013
#02315:0000001300000000
#02418:00130000
#02412:13
#02415:000000000033000000000000130033330033000000000000
#0241b:000000000000000000000033000000000000000000000000
#0251b:13
#02515:0013000000000000
#02518:00130000
#02512:0000001300000000
#0251a:000000000000000000000000140000000034140000000034
#02517:0000000000140014
#0271b:0000001300000013
#02712:2413
#02718:0000000000130000
#02715:00000013
#0271a:24
#02710:41
#02818:0000001300130000
#02815:00001313
#0281b:0000000000000013
#02915:0000001300002300
#02918:1300000000130013
#0291b:0023
#03015:0013001300130000
#03012:23000013
#03018:00230013
#0301b:0023
#0331b:00000013
#03315:0000001300000013
#03318:13
#03312:0013000000000000
#03412:0013000000000000
#03415:0000001300001300
#03418:1313
#0341b:00130000
#04215:13
#04218:00130000000000000000000000000000
#04412:0000001300000000
#0441b:13
#04715:0013000000000000
#04718:00130000
#04712:0000001300000000
#0471b:0013
#04812:1313
#04818:0013000000000000
#04815:00130000
#0481b:0000001300000000
#0511b:13
#05115:0013000000000013
#05118:00131313
#05112:0000001300130000
#0511f:11
#0521b:13
#05212:0000000000130000
#05218:00000013
#05215:0000000000000013
#05315:0000000000130000
#05318:000000000033130000000000000000000000130000000000
#0531b:130000000000000000000033000000000000000000000000
#05415:0013000000001300
#05418:0000000000000013
#05515:1300000000000013
#05518:00000000001300000000000013000000
#05512:00000000001300000000000000000000
#0551b:13
#00219:1414141414141414
#00218:00140000001400000014000000140000
#0021a:00000014000000140000001400000014
#00319:1414000000000000
#00318:00140000000000000000130000002300
#0031a:00000014000000000000000000000000
#00312:0013
#00315:00000000000000000000000013000023
#03716:00000014000000000014000000000000
#03712:0000001400000000
#0371a:14000014
#03710:41
#04515:00000000001300000000000000000000
#04512:0000000000000013
#04618:00000013
#05718:0000000000000013
#05715:130000000000000000000033000000000000000000000000
#05712:000000000033130000000000000000000000000000000000
#05812:1313
#0581b:00130013
#05815:000000000033000000000000000000000033000000000000
#05818:000000000000000000000033000000000000000000000033
#05912:14
#06912:0013
#06915:13
#07018:13
#0701b:0013
#0011a:14
#00116:0000000000240000
#00112:000000000024
#05012:0013
#05016:0000000000000000000000000000000000333333333333330000000000000000
#0501b:000033003300330000330000000000000000000000000000000000000000000000000000000000000000000000000000
#00613:1414141414141414
#00614:00140000001400000014000000140000
#00612:00000014000000140000001400000014
#00713:1414000000000000
#00714:00140000000000000000000000000000
#00712:00000014000000000000000000000000
#0071b:0013
#00715:0000000000130023
#00718:00000000000000000000000013000023
#00915:0000000000130000
#00918:00000013
#00912:0000000000000013
#0261a:14
#02616:00140000
#03112:0000001300000013
#0311b:2313
#03115:2300000000130000
#03118:00000013
#03215:0000001300000013
#03218:0013
#03212:0000000000130000
#0321b:00000013
#0351b:13
#03518:0000001300000000
#03512:13
#03515:0000001300000000
#0361b:1313
#03612:1313
#03618:00130000
#03615:00000013
#03916:00000014000000000014000000000000
#0391a:0000001400000000
#03912:14000014
#03812:1313
#0381b:1313
#03815:00130000
#03818:00000013
#04116:00000014000000000014000000000000
#04112:0000001400000000
#0411a:14000014
#0401b:1313
#04012:1313
#04018:00130000
#04015:00000013
#04318:000000000000130000000000000000000033130000000000
#0431b:000000000000000000000033130000000000000000000033
#04315:23
#05618:00000013000000000000000000001300
#05612:00000013000000000000000000000000
#0601b:0013001300002300
#06012:0013001300000000
#06018:0000130000230000
#06015:0000000013000023
#06112:2400001300000013
#0611b:0013
#06115:0000000000130000
#06118:00000013
#0611a:24
#0611f:21
#06215:0000001300130000
#06218:00001313
#06212:0000000000000013
#06210:41
#06318:0000001300002300
#06315:1300000000130013
#06312:0023
#06418:0013001300130000
#0641b:23000013
#06415:00230013
#06412:0023
#0651b:0000001300000013
#06512:2313
#06518:2300000000130000
#06515:00000013
#06618:0000001300000013
#06615:0013
#0661b:0000000000130000
#06612:00000013
#06715:13
#0671b:0013000000000000
#06718:0000001300000013
#06712:00000013
#0681b:0013000000000000
#06818:0000001300001300
#06815:1313
#06812:00130000
#07112:13
#07115:00130013
#07118:0013
#0731b:0013
#07318:13
#07415:13
#07412:0013
#0751b:13
#07518:00130013
#07515:0013
#07612:13
#0761b:13
#07615:00130013
#07618:0013
#07812:0013001300002300
#0781b:0013001300000000
#07818:0000000013000023
#07815:0000130000230000
#07712:14
#0771a:003434343434000000000000000000343434000000000000
#07912:26
#0721b:00333333333300000000000000000000
#07212:00000000000000000033333333330000
#04910:41
#00156:0000000000140000
#00152:000000000014
#0015a:54
#00259:5454545454545454
#00258:00240000002400000024000000240000
#0025a:00000024000000240000002400000024
#00359:5454140000000000
#00358:00240000000000000000000000000000
#0035a:00000024000000000000000000000000
#0105b:13
#01058:00000000000000000000000000000053
#0115b:0013000000000000
#01258:0013000000000000
#01452:0013000000005300
#01455:0053
#01355:0000000000000053
#01658:0013000000000000
#0155b:0000000000000053
#01555:53
#01552:00530000
#0175b:1313
#01752:00130013
#02052:13
#02058:1353
#0205b:00000053
#01955:00000053
#0195b:00000053
#02152:0000005300000013
#02352:0000000000130000
#02355:0000005300000000
#02458:00530000
#02452:530000000013
#02455:0053
#02752:14
#0275a:14
#02852:0013000000000000
#0285b:0000000000000063
#02958:23
#03052:00000053
#03058:00000053
#03155:13
#0315b:13
#03458:1313
#0345b:00130000
#03455:00000013
#04355:13
#04358:00530053
#0435b:0053
#04455:0000000000130000
#04452:0000005300000000
#04458:00000013000000000000000000000000
#0445b:53
#04559:0000000000140000
#04552:0000000000000063
#04658:00000063
#04758:00000000000000000000001300000000
#0475b:0063
#0525b:63
#05258:0000001300000000
#05852:6363
#0585b:00530053
#05952:54
#07058:53
#0705b:0023
#06952:0023
#06955:63
#07952:16
#05052:0063
#00457:0000000000130000
#00653:6464646464646464
#00654:00240000002400000024000000240000
#00652:00000024000000240000002400000024
#00753:6464140000000000
#00754:00240000000000000000000000000000
#00752:00000024000000000000000000000000
#00856:0000000000130000
#01854:14
#0255a:00005454
#02557:0000000000240024
#0265a:54
#02656:00240000
#0325b:0013000000000000
#03352:0053000000000000
#03355:0000002300000000
#03558:0000002300000000
#0355b:53
#03552:63
#03555:0000002300000000
#03658:00130000
#03655:00000013
#03855:00130000
#03858:00000013
#04058:00130000
#04055:00000013
#04852:0053
#04855:00000000000000000000001300000000
#0535b:53
#05358:00530000
#05555:63
#05552:00000000002300000000000000000000
#0555b:63
#05558:00000000002300000000000000000000
#05455:0053000000000000
#05658:00000053000000000000000000000000
#05652:00000053000000000000000000000000
#05755:530000000000000000000000000000000013000000000000
#05752:00530000
#0645b:00000063
#06455:00000063
#06252:0000000000000053
#0625b:0013000000000000
#06355:23
#0675b:0063000000000000
#06758:0000002300000000
#06558:13
#06552:13
#06652:0013000000000000
#06855:1313
#06852:00130000
#06858:00000013
#0735b:0023
#07358:53
#07455:63
#07452:0023
#06152:14
#0615a:14
#0013a0:14
#001360:0000000000240000
#002390:1454545454545454
#002380:00540000005400000054000000540000
#0023a0:00000054000000540000005400000054
#003390:5454240000000000
#003380:00540000000000000000000000000000
#0033a0:00000054000000000000000000000000
#0043b0:13333333330000003300000000000000
#004390:00000000003300330033000000000000
#004370:0000003300230000
#005320:0013003323000000
#005340:00000033003300000000000000000000
#005360:00330000
#006330:1454545454545454
#006340:00540000005400000054000000540000
#006320:00000054000000540000005400000054
#007330:5454240000000000
#007340:00540000000000000000000000000000
#007320:00000054000000000000000000000000
#008320:13333333330000003300000000000000
#008340:00000000003300330033000000000000
#008360:0000003300230000
#0093b0:0013003323000000
#009390:00000033003300000000000000000000
#009370:00330000
#010380:00000000000000000000000000000013
#0113b0:0023000000000000
#011380:00000000000000000000000000000013
#012380:0023000000000000
#013350:0000000000000013
#014320:0023000000000000
#014350:000000000000000000000000130000000000000000000033
#014320:000000000000000000000000000000000033330000000000
#015350:330000000000000000000033230000000000000000000000
#015320:000000000033330000000000000000000000000000000000
#0153b0:0000000000000013
#016380:0023000000000000
#019350:00000013
#020320:23
#0193b1:00000013
#020381:23
#020381:000000000000000000000000130000000000000000000033
#0203b1:000000000000000000000000000000000033330000000000
#021381:23
#021321:0000001300000000
#021351:0000000000230000
#023351:0000001300000000
#023321:0000000000230000
#024321:13
#024351:000000000033230000000000000000000000000000000000
#024380:00130000
#0243b0:000000000000000000000033230000000000000000000000
#024351:000000000000000000000000130033330033000000000000
#024321:000000000023
#0253a1:000000000000000000000000140000000034340000000034
#025371:0000000000540054
#0263a1:3424
#026361:00540000
#028321:1323000000000000
#0283b1:0000000000000013
#029381:53
#0293b1:0023000000000000
#030321:00000013
#031351:23
#030380:00000013
#0313b0:23
#0323b0:1323000000000000
#033320:0013000000230000
#033350:0000005300000000
#0353b0:13000023
#035380:0000005300000000
#035321:13000023
#035351:0000005300000000
#042351:0013000033000033
#042321:00000000003300000000003300000000
#043351:23
#043381:000000000000130000000000000000000033330000000000
#0433b1:000000000000000000000033330000000000000000000033
#0443b1:33
#044381:00000023000000000000000000000000
#044321:0000001300000000
#044351:0000000000230000
#0453b1:13
#0453a1:00330000000000000000000000000000
#045391:0033000000000000
#045381:00000023000000000000000000000000
#045391:0000000000000000000000000000143434000000240000000000000000000000
#045321:0000000000000013
#046351:0023000000000000
#0463b1:0000001300000000
#046381:00000033
#0473b1:23
#0473b1:0013
#047381:00000000000000000000002300000000
#048321:0013
#048351:00000000000000000000002300000000
#0493b1:1323
#0493a1:00330000000000330000000000000000
#049391:0033003300000000
#049381:00000033003300000000000000000000
#049371:00330000
#049320:0013
#049330:00000000000000000033000000000033
#049340:0000000000330033
#049350:00000000000000000000003300330000
#049360:00000033
#050320:23
#0503b1:130033003300330000330000000000000000000000000000230000000000000000000000000000000000000000000000
#050371:00330000
#050381:00000000003300000000000000000000
#050391:0000003300000000
#0503a1:00000000000000330000000000000000
#050320:0013
#050360:0000000000000000000000000000000000333333333333332300000000000000
#0523b0:13
#052380:0000332300000000
#0533b0:130000000000000000000033230000000000000000000000
#053380:000000000033330000000000000000000000000000000000
#053320:0000000000000013
#054350:0033000000000000
#054320:0000000000230000
#055350:1300000000230000
#055320:00000000005300000000000000000000
#0553b1:1300000000230000
#055381:00000000005300000000000000000000
#056381:13000033000000000000000000000000
#0563b1:00000023
#056320:13000033000000000000000000000000
#056350:00000023
#057350:130000000000000000000033330000330023000000000000
#057320:000000000033330000000000000000000000000000000000
#058320:13
#058350:000000000033230000000000000000000000000000000000
#0583b1:00130000
#058381:000000000000000000000033230000000000000000000000
#058320:0013
#058350:000000000000000000000000000000000033230000000000
#0583b1:00000013
#058381:000000000000000000000000000000000000000000000033
#059381:23
#059320:14
#060360:24
#0623b0:1323000000000000
#062320:0000000000000013
#063350:53
#063320:0023000000000000
#0643b0:00000013
#065380:23
#064351:00000013
#065321:23
#066321:1323000000000000
#0673b1:0013000000230000
#067381:0000005300000000
#069351:13
#069321:0053
#070351:23
#070380:13
#0703b0:0053
#071380:23
#0723b0:13333333333300000000000000000000
#072370:0000002300000000
#072320:00000000000000001333333333330000
#072360:0000000000000023
#073380:13
#0733b0:0053
#074380:23
#074351:13
#074321:0053
#075351:23
#0773a1:143434343434000000000000000000343434340000000000
#077361:000000000000340034000034000034000000000000000034
#077381:000000000000000000000000000000000000000034340000
#078361:24
