This file was generated by Ched 2.7.0.0.
#TITLE ""
#ARTIST ""
#DESIGNER ""
#DIFFICULTY 0
#PLAYLEVEL
#SONGID ""
#WAVE ""
#WAVEOFFSET 0
#JACKET ""
#REQUEST "ticks_per_beat 480"
#00002: 4
#BPM01: 145
#00008: 01
#TIL00: ""
#VOLUME: ""
#HISPEED 00
#MEASUREHS 00
#0001a:0000001400000014
#00012:00000000000014000022000000001400
#0001c:22002222000000000000000000000000
#00018:00220000000000000000000000000000
#00016:00000000000000002200222200000000
#0031a:00141400
#00317:0000000000130000
#0031b:00000013
#00316:1400001413001322
#00312:0014000000130000
#00318:00000000001400140000000000000022
#0051b:0013000000000000
#00518:00000013001300000000000000000000
#00515:00130000
#00512:1400001300191613
#00412:13000016000000000000160000000000
#00415:00130000000013001300000000000000
#00418:00001300001300160013000000000000
#0041b:00130000
#0041a:00000014
#00416:0000000000000014
#01012:24000000000013000000000000001313
#01015:0013
#01018:0000000000130000
#0101b:00130013
#01016:0014141400001400
#01017:00000000000000000000000000000013
#0101a:24
#01010:41
#0111b:00001300000013001300000000001313
#01114:00000013
#01117:0000130000130000
#01116:00000000000000140000000000001313
#01112:0000130000130000
#01119:00000013
#01212:0013000000131300
#0121b:0000001313000013
#01216:00000000000000130000000000000000
#01217:00000000000000000000001300000013
#0131b:13000000000013001300000000000013
#01312:0013130000131300
#01318:00000000000000130000000000130000
#01316:00000013000000000000000000000000
#01315:00000000000000000000001300001300
#01416:000000000000000000140000140000000000000000000014
#01412:0000001c0000000000130000000000000013000000000000
#01417:00000013
#0141b:00130000000000001300000000000000
#01418:13
#01518:0000000000130000
#01516:000000000000000000000014000000000000000000001400
#01515:00000013
#01517:00130000
#0151b:1313
#01512:000000000013000000000000000000000000000000130000
#01612:0014001300130000
#01618:00000013
#01615:0000000000000013
#0161b:0000130013130000
#01616:00131300
#01617:0000001300000000
#01716:0014001400000000
#01718:00000000000000000000130000130000
#01715:00000000000000000013001300001329
#0171a:24242424
#01712:24242424
#01816:000000000000120000000000000000000012000000000000
#01812:2c00000012000012
#0181c:0000120000120000
#01818:000000000000000000000000120000000000120000000012
#0181a:0012000000000000
#01814:0000001200000000
#01810:41
#01916:120000000012000000000000000000000000120000000000
#0191a:0012000000001200
#0191c:0000120000120000
#01914:0000001200000012
#01918:000000000000000000000012000000120000000000120000
#01912:0012
#02012:14120012
#02016:000000120000000000000012000000000000000000000012
#02018:000000000012000000120000000000000012000000000000
#0201c:0012
#02014:0000000000120000
#0201a:1400000000000012
#02114:0000120000120022
#0211c:1212
#02112:0012000012000000
#0211a:0000001200001200
#02118:00120000
#02116:0012001200000000
#0221b:000000000000000013000000000000000000000000000013
#02218:000000000000000000160013000000000000000013000000
#02215:000000000000160000000000160013000013000000160000
#02212:1416000000161600
#0221a:14
#02318:160000000000000000000013000000000000000000000000
#02312:0016001300000013
#02315:000000000000160000000013000000000000000000000000
#0231b:0000001300000000
#02316:0000000000000014
#0241b:13
#02412:000000000000140000000000000014000000000000000014
#02416:140000000014000000000000140000000000000000000000
#0241a:000000000000000000000014000000000000000000000000
#02516:1414141418001800
#0251a:001400001400001400001400
#02512:000000000014000000000014000000180014000000180014
#0261b:00000000130000000000000000131300
#02612:00130000000000001300000000131300
#02615:00001300001300130000130000000000
#02618:00000013000013000013001300000000
#02616:28
#02718:23000000000013000013000013000000
#0271b:0013000013000013
#02715:2300130000130000
#02712:0013000013000000
#02716:0000000000000014
#02710:41
#02818:0000001300130000
#0281b:00000000000000001300000000000013
#02815:00000000130000000013000013000000
#02812:1313000013000013
#02817:0000000000000013
#02816:00000000000000000000000000000013
#03216:000000000000000000000014
#03215:0000001300130000
#03212:0013
#03218:00000000130000000013000013000000
#0321b:1313000013000000
#0321a:0000000000000014
#03312:0014000000000000
#03317:0000001400000000
#03316:000014000000000000000000000000000000000000120000
#0331a:0000000000140000
#03318:00000012
#03418:00130000000000000000001200120000
#03415:0013000000000000
#0341a:00000000001300000000000000000000
#03412:13141500
#03419:00000013000000000000000000000000
#03417:0000001300000000
#0341b:00000000000000130000000000000000
#03416:0000000000001212
#03512:00000013000000000000001313000000
#0351b:13000000000013001313000000000000
#03516:14001400001400000014000014000000
#03612:13000000001300000000001400000000
#03616:00000014001400000000140018000000
#03618:00000000000000130000000000000000
#03615:0013
#0361a:00000000000000000014000000000000
#0361b:13000013000000000000000000000000
#04218:1300000000000013
#04215:00130000000000000000000000000013
#04212:0013000000000000
#04318:001200000000
#04316:000000000012000000000000130000000000000000000000
#04312:2c0000000000130000000013130000000000000000000000
#0431b:00130013
#04317:00000013
#04417:0000001300000000
#0441b:0000001300000000
#04416:13
#04412:13
#0451b:13000000001300000000000000001300
#04518:00130000000000130000000000000000
#04515:0000000013000000000000000000001300000000000000000000000000000000
#04512:00000013001300000000130000000000
#0471b:00000000130000000000001300000000
#04716:00001400000014000000000000001414
#0471a:00000000000000000000000000140000
#04718:0013
#04715:00000000000000000013000000000000
#04712:00000000000000000000001300000000
#04912:13130013000000001313001300000000
#04916:0014001400140014
#0491b:00000000131300130000000013130013
#04910:41
#05016:121200000000000000000000
#05018:000012000000000000130000000000000000130000000000000000000000000000000000000000000000000000000000
#0501b:0013000000000000
#05015:00000000130000130000000000000000
#05012:0000000000000000000013000000000000343434343434343400340034000000
#0501a:0014
#05118:160000000000000000130000000000130000000000000013
#05112:0013000000000013
#05115:00130013
#0511b:0000000013000013
#05116:0014000014000000
#0511f:11
#05215:1300130000000013
#0521b:0013001300130000
#05218:00000013
#05212:0000001313000000
#05216:0000000014140000
#05312:130000000000000000000014000000140000000000000000
#05314:00000014
#0531b:0000000000000013
#05316:140000000014000000000000140000000000000000140000
#0531a:00140000
#05317:0000000000130000
#05319:00000013
#0541b:0013000000000000
#05416:000000140000000000000000000000000000140000000012
#05418:000000000000000000000012
#05417:1300001300000000
#05412:1400001400001300
#0551b:00000013
#05518:0000000000000013
#05512:0000000000130013
#05515:00000000001400000000000013000000
#0551a:14
#05614:0000000000000013
#0561b:1300000000000000000000000000001300000000000000000000000000000000
#05616:1400000000000000000000000000001400000000000000000000000000000000
#05617:00000013000000000000000000000000
#05612:00000014000000000000000000000000
#0601a:000000000000001400001400
#06012:000000000000000000000016000000280014000000280014
#06018:000013000016000000000000000000000000000000000000
#06016:13000028
#06015:001300
#07112:1212
#07114:00000000000000000016000000000000
#0711c:00000000000012000000001200000000
#07116:00120016
#07115:00120000000000000000000000000000
#07118:0012000000000000
#0711b:00000012000000000000000000000000
#07119:00000000001200000000000000000000
#0761c:00121200000000000000000000000012
#07617:00120000
#07618:00000000000000120000120000120000
#07614:0012
#07616:00000000000000000012000012000000
#0761a:00000000000000000000001200000000
#07612:00120000
#07712:000000000000000000000016000000000014000000000013
#0771a:000000000000001400000000
#07718:001400140014000016000000000000000000000000000000
#07714:141414140000000000001300
#07716:000000000000000000000000000000141400000000000000
#0771b:00000013
#07719:0000000000000013
#0571b:1300000000000013
#05716:140000000014000000000000140000000000000000140000
#05712:00140000
#0571a:000000000000000000000014000000000000000000000000
#06917:0013
#06912:13
#0691a:00130013
#0691b:1312000013120000
#0701b:13
#07016:0013
#07013:0012130000121300
#07012:0013
#0011c:12
#00116:12000000001200121200240000000000
#00118:000000000000120000120000000000000000000000000000000000000000000000000000000000002400000000000000
#00114:000000000000000000120000000000000000000000000000000000000000000000000000000000002400000000000000
#0011a:0012
#00112:0000000000240000
#00216:14141414
#00212:0014000000140000
#0021a:2400001400000014
#00712:00141413
#00716:14000000000014000000130000000022
#00717:00001313
#0071b:0000000000130000
#00714:00000000001400140000000000000000
#0071a:0014000000000000
#00718:0000000000000022
#00912:0013000000000000
#00915:00000013001300000000190000000000
#00918:00130016
#0091b:0000001300000013
#0091a:14
#0081b:13
#00818:00130016000013001300160000000000
#00815:00001300001300000013000000000000
#00812:00000000130000160000000014000000
#00816:0000000000000014
#02919:13
#02917:00130000000000000000130000000000
#02914:13
#02912:00130000130000002400140000001400
#0291b:0000001313001300
#02916:0000141400002413
#0301b:13131313
#03017:0013000000130000
#03016:0000241300002413
#03012:2414001424140014
#03115:00000000000013000013000013000000
#03112:2413000013000013
#03118:0000130000130000
#0311b:2313000013000000
#03116:0000000000000014
#0371b:00000013000000000000001313000000
#03712:13000000000013001313000000000000
#03716:14001400001400000014000014000000
#03710:41
#0381b:13000000001300000000000000000000
#03816:00000014001400000000140000000000
#03815:00000000000000130000000000000000
#03818:0013
#03812:13000013000000000014000018000000
#0381a:00000000000000000000001400000000
#03912:00000013000000000000001313000000
#0391b:13000000000013001313000000000000
#03916:14001400001400000014000014000000
#04012:13000000001300000000001400000000
#04016:00000014001400000000140018000000
#04018:00000000000000130000000000000000
#04015:0013
#0401a:00000000000000000014000000000000
#0401b:13000013000000000000000000000000
#0411b:00000013000000000000001313000000
#04112:13000000000013001313000000000000
#04116:14001400001400000014000014000000
#04612:00000000000013000000000000000013
#0461b:00000013
#04618:00000000000000000000000000130000
#04615:0000000000000013
#04812:00000000130000000000001300000000
#04816:0014001400000000
#04815:0000000013000013
#04818:00000000000000000013000000000013
#0481b:00000000000000000000001300130000
#05812:130000000000000000000015000000000000000000000015
#05819:000000000015000000130000000000000015000000130000
#05814:0013000000130000
#05816:14130013
#05817:0013
#05917:13
#05912:000000001600001400130000
#05918:000000001400140000000016000000000000000000000000
#05919:000000000013
#05914:000000140014000000000000000000000000000000130000
#0591b:000000000000000000000000000000000000000000000013
#05916:000000000000000000000000000000141400000000000000
#0591a:000000000000000000000000000000000014000000000000
#06115:00000000000013000013000013000000
#06112:0013000013000013
#06118:0000130000130000
#0611b:0013000013000000
#06116:2800000000000014
#0611f:21
#06215:0000001300130000
#06212:00000000000000001300000000000013
#06218:00000000130000000013000013000000
#0621b:1313000013000013
#06216:0000000000000013
#06217:00000000000000000000000000000013
#06210:41
#06616:000000000000000000000014
#06618:0000001300130000
#0661b:0013
#06615:00000000130000000013000013000000
#06612:1313000013000014
#0671a:0014000000000000
#06715:0000001400000000
#06716:001400000000000000120000
#06712:0000000000140000
#06718:0000000000000012
#06815:00130000000000000000130000000013
#06818:00001300000000000000001300001300
#06813:00000000001300000000000000000000
#0681b:13000000000000000000000000130000
#0681a:00140000
#06819:0015
#06814:00000013000000000000000000000000
#06816:0000001300000000
#06812:00000000000000130013000013000000
#06314:13
#06316:00130000140014000000130024000000
#06319:13
#0631b:00130000130000000000000000000000
#06312:0000001313001300
#06317:0000000000000013
#0631a:0000000024140014
#06412:13131313
#06416:0013240000132400
#06417:0000001300000013
#0641a:2414001424140014
#06518:00000000000013000013000013000000
#0651b:0013000013000013
#06515:0000130000130000
#06512:2313000013000000
#06516:0000000000000014
#0651a:24
#07214:12000000120000000000001200000000
#07217:00120012001200000000000000000000
#0721a:0012001212000000
#07218:00000000000000000012000012001200
#07216:00000000000000000000120000120000
#0751c:1212
#07516:00001200000000000016000000000000
#07512:00000000000012000000001200000000
#07514:00000016
#07519:00120000000000000000000000000000
#07513:00000012000000000000000000000000
#07518:00120000
#07515:00000000001200000000000000000000
#07315:0014
#0731a:14
#07313:0012130000121300
#07312:1313
#07412:14
#07417:0014
#0741a:00130013
#0741b:0012000013120000
#07812:000000000016000000000000000014000000280014000000
#0781a:000000000000000000000000000000000014000000000014
#07818:000000000000000013000016000000000000000000000000
#07817:13
#07815:001300000000000000000000
#07816:0000000000280028
#00616:14141414
#0061a:0014000000140000
#00612:2400001400000014
#07912:28
#05752:000000000000240000000000000000000013000000000000
#05756:640000000000000000000000000000000014000000000000
#00156:0000000000140000
#00158:000000000014
#00152:0000000000140000
#00154:000000000014
#00358:00000000000000000000000000000012
#00356:54140000
#00352:0024000000000000
#01052:14000000000000000000000000000053
#0105a:14
#01156:0013000000000000
#0115b:00001300000000000000000000000053
#01252:0013000000000000
#01257:0013000000000000
#01457:00000053
#01452:003c000000000000
#0145b:0053
#0165a:0014000000000000
#01652:0014000000000000
#01556:000000000000000000000054
#0155b:53
#01557:00530000
#01755:00000000000000000000000000000049
#01752:00340034
#0175a:4444
#01852:3c
#02052:14
#0205a:14
#02154:0000000000000012
#0235b:0000005300130000
#02352:0000005300130000
#02358:000000000000000000000023000000000000000000000000
#02355:000000000000000000000023000000000000000000000000
#02456:540000000013
#02452:00240000
#0245a:000000000014
#02755:13
#02758:13
#03056:0000142300001423
#03052:1414
#0305b:53535353
#03057:0023000000230000
#03152:14
#0315b:43
#02952:00230000000000001400000000000000
#02959:53
#02957:00230000000000000000230000000000
#02954:53
#0295b:0043000053005300
#02956:0043000000001423
#03452:13141500
#04352:1c53
#0435b:00530063
#04356:0053
#04357:00000063
#04452:5300000000130000
#04456:5300000000130000
#04457:00000013000063000000000000000000
#0445b:00000013000063000000000000000000
#0455b:0000000000000053
#04558:0000000000130000
#04552:0000000000130000
#06156:18
#05255:53
#0525b:0023001300000000
#05252:0000001300000000
#05457:2300002300000000
#05452:2400002400000000
#05456:0054000000000000
#0545b:0053000000000000
#0535b:0000000000000053
#05356:5400000000000054
#0535a:00240000
#06952:63
#06957:0023
#0695a:00130013
#0705b:63
#07056:0023
#07053:00130013
#07156:00000016
#07154:00000000000000000016000000000000
#00252:0024000000240000
#0025a:1400002400000024
#00256:54645464
#00452:0000000000160000
#00552:000000001c191613
#00756:64000000140000000000000000000012
#0075a:0024000000000000
#00955:0000000000190000
#00958:00000016
#0095b:0000000000000013
#00952:001c
#00858:0000000000160000
#02556:1414141418001800
#02552:0000000000180018
#02656:18
#0265b:0000000000000053
#02652:0000000000000053
#02852:0033000000000053
#02856:00004400000000000000000000000023
#02857:0000000000000053
#0285b:00000000000000000000000000000023
#0325b:0043000000000000
#03256:000000340000000000000000000000000000000000005400
#03352:0054000000000000
#03357:0000002400000000
#03556:00000000000000000034000044000000
#0355b:4300004300000000
#03552:00000033000000000000000000000000
#0365a:00000000000000000044000000000000
#03656:00000048
#0375b:00000043000000000000000000000000
#03752:3300003300000000
#03756:00000000000000000044000034000000
#03852:00000000000000000034000038000000
#03952:00000033000000000000000000000000
#0395b:4300004300000000
#03956:00000000000000000034000044000000
#0405a:00000000000000000044000000000000
#04056:00000048
#0415b:00000043000000000000000000000000
#04152:3300003300000000
#04156:00000000000000000044000034000000
#04652:0013005300000000
#0465b:0000000000130000
#0475b:00000000000000000000001300000000
#04752:00000000000000000000001300000000
#0485b:00000000000000000000001300000000
#04852:00000000000000000000001300000000
#0505a:0054
#05158:16
#0555a:54
#05555:00000000002400000000000000000000
#0565b:2300000000000000000000000000002300000000000000000000000000000000
#05656:0000000000000000000000000000002400000000000000000000000000000000
#05657:00000053000000000000000000000000
#05652:00000054000000000000000000000000
#06058:000000000046000000000000000000000000000000000000
#06052:000000000000000000000036000000000000000000000000
#06656:000000440000000000000000000000000000000000006400
#06652:0033000000000000
#0675a:0064000000000000
#06755:0000002400000000
#0685b:13
#0685a:00140000
#06859:0015
#0625b:0043000000000063
#06256:0034000000000063
#06252:00000000000000000000000000000023
#06257:00000000000000000000000000000023
#06354:63
#06356:00230000000000000000230014000000
#06359:63
#0635b:00230000000000000000000000000000
#06352:0033000063006300
#06357:0033000000000023
#0635a:0014
#06452:63636363
#06456:0023140000231400
#06457:0000002300000023
#0645a:1414
#0655a:14
#06552:33
#07556:00000000000000000016000000000000
#07554:00000016
#07355:0024
#0735a:54
#07353:00130013
#07452:54
#07457:0024
#0745a:00130013
#07852:000000000036000000000000000000000000000000000000
#07858:000000000000000000000046000000000000000000000000
#07952:18
#00656:64546454
#0065a:0024000000240000
#00652:1400002400000024
#002360:14545454
#002320:0054000000540000
#0023a0:0000005400000054
#003360:54240000
#003320:0054000000000000
#0053b0:000000000000000000000000000000000000000000000000000000000000000000000000000000000000000000000000000000000000000000000000000000000000000000000000000000000000000000000000000000000000000000000000000000000000000000000000000000000000000000000000000000000000000000000000000000000000000000000000000000000000000000000000000000000000000000000000000000000000000000000000130000000000000000000000000000000000000000000000000000000000000000000000000000000000000000000000000000000000000000000053000000000000000000000000000000000000000000000000000000000000000000000000000000000000000000000000000000000000000000000000000000000000000000000000000000000000000000000000000000000000000000000000000000000000000000000000000000000000000000000000000000000000000000000000000000000000000000000000000000000000000000000000000000000000000000000000000000000000000000000000000000000000000000000000000000000000000000000000000000000000000000000000000000000000000000000000000000000000000000000000
#005320:002c
#006360:14545454
#0063a0:0054000000540000
#006320:0000005400000054
#007360:54240000
#0073a0:0054000000000000
#009320:0000000000000000000000000000000000000000000000000000000000000000000000000000000000000000000000000000000000000000000000000000000000000000000000000000000000000000000000000000000000000000000000000000000000000000000000000000000000000000000000000000000000000000000000000000000000000000000000000000000000000000000000000000000000000000000000000000000000000000000000001300000000000000000000000000000000000000000000000000000000000000000000000000000000000000000000000000000000000000000000532c0000000000000000000000000000000000000000000000000000000000000000000000000000000000000000000000000000000000000000000000000000000000000000000000000000000000000000000000000000000000000000000000000000000000000000000000000000000000000000000000000000000000000000000000000000000000000000000000000000000000000000000000000000000000000000000000000000000000000000000000000000000000000000000000000000000000000000000000000000000000000000000000000000000000000000000000000000000000000000000000
#010320:00000000000000000000000000000013
#011360:0023000000000000
#0113b0:00000000000000000000000000000013
#012370:0023000000000000
#0143b0:0013
#014370:000000000000000000000000000000000023000000000000
#014370:00000013
#0143b0:000000000000000000000000000000000000000000000023
#0153b0:13
#015370:000000000023000000000000000000000000000000000000
#015370:00130000
#0153b0:000000000000000000000023000000000000000000000000
#015360:000000000000000000000014
#0163a0:0024000000000000
#021380:000000000000000000000000000012220000000000000000
#021360:000000000000000000000000000000000012220000000000
#021380:000000000000000000000000000000000000000012220000
#023320:000000000000000000130000005300230000000000000000
#023350:000000000000000000000053000000000000000000000000
#0233b1:000000000000000000130000005300230000000000000000
#023381:000000000000000000000053000000000000000000000000
#024361:14
#024321:000000000024000000000000000000000000000000000000
#024321:00140000
#024361:000000000000000000000024000000000000000000000000
#024361:0000000000140000
#0243a1:000000000000000000000000000000000034000024000000
#024360:000000000000000000000000000000000013000023000000
#026320:0000000000000013
#027350:23
#0263b1:0000000000000013
#027381:23
#028361:1424000000000000
#028371:0000000000000013
#0283b1:00000000000000000000000000000053
#029391:53
#029371:00530000000000000000000000000000
#0293b1:0023000000000000
#028320:0000000000000013
#028360:00000000000000000000000000000053
#029340:53
#029320:00530000000000000000000000000000
#029360:0023000000000000
#0293b0:00001333
#029370:0000000000530000
#029360:0000000000000053
#0303b0:33333333
#030370:0053000000530000
#030360:0000005300000053
#0313b0:23
#032360:1424000000000000
#032360:000000000000000000000014
#033320:002400000000000000000000
#033320:0014000000240000
#033370:0000005400000000
#042350:000000000000195959000000000000000000000000000000000000000000000000000000000000000000000000000000
#042360:000000000000000000000000005800000000580000000000000000000000000000000000000000000000000000000000000000000000000000000000000000000000000000000000000000000000000000000000000000000000000000000000
#042370:000000000000000000000000000000570000000057000000000000000000000000000000000000000000000000000000000000000000000000000000000000000000000000000000000000000000000000000000000000000000000000000000
#042380:000000000000000000000000000000000056000000005600000000000000000000000000000000000000000000000000000000000000000000000000000000000000000000000000000000000000000000000000000000000000000000000000
#042390:000000000000000000000000000000000000005500000000550000000000000000000000000000000000000000000000000000000000000000000000000000000000000000000000000000000000000000000000000000000000000000000000
#0423a0:000000000000000000000000000000000000000000540000000054000000000000000000000000000000000000000000000000000000000000000000000000000000000000000000000000000000000000000000000000000000000000000000
#0423b0:000000000000000000000000000000000000000000000053005300005300230000000000000000000000000000000000000000000000000000000000000000000000000000000000000000000000000000000000000000000000000000000000
#0423c0:000000000000000000000000000000000000000000000000000000520052000000000000000000000000000000000000000000000000000000000000000000000000000000000000000000000000000000000000000000000000000000000000
#042321:000000000000000000000000000000000000000000000000000000000000195859575956585557545653555354525352230000000000000000000000000000000000000000000000000000000000000000000000000000000000000000000000
#042350:000000000000000000000000000000000000000000000000195959000000000000000000000000000000000000000000
#042360:000000000000000000000000000000000000000000000000000000000000000000000000000000000000000000000000005800000000580000000000000000000000000000000000000000000000000000000000000000000000000000000000
#042370:000000000000000000000000000000000000000000000000000000000000000000000000000000000000000000000000000000570000000057000000000000000000000000000000000000000000000000000000000000000000000000000000
#042380:000000000000000000000000000000000000000000000000000000000000000000000000000000000000000000000000000000000056000000005600000000000000000000000000000000000000000000000000000000000000000000000000
#042390:000000000000000000000000000000000000000000000000000000000000000000000000000000000000000000000000000000000000005500000000550000000000000000000000000000000000000000000000000000000000000000000000
#0423a0:000000000000000000000000000000000000000000000000000000000000000000000000000000000000000000000000000000000000000000540000000054000000000000000000000000000000000000000000000000000000000000000000
#0423b0:000000000000000000000000000000000000000000000000000000000000000000000000000000000000000000000000000000000000000000000053005300005300230000000000000000000000000000000000000000000000000000000000
#0423c0:000000000000000000000000000000000000000000000000000000000000000000000000000000000000000000000000000000000000000000000000000000520052000000000000000000000000000000000000000000000000000000000000
#042321:000000000000000000000000000000000000000000000000000000000000000000000000000000000000000000000000000000000000000000000000000000000000195859575956585557545653555354525352230000000000000000000000
#0433b1:00130000
#043361:000000000000000000000033330000000000000000000000
#043371:000000000000000000000000000000000033330000000000
#043321:000000000000000000000000000000000000000000000033
#044321:33
#0443b1:00000023000000000000000000000000
#043320:0013
#0433b0:000000000000000000000000000000000033330000000000
#043360:000000000000000000000000000000000000000000000033
#044360:33
#044370:00000023000000000000000000000000
#0443b0:0000001300000000
#044320:0000000000230000
#044371:0000001300000000
#044361:0000000000230000
#045381:0000000013230000
#0453b1:0000000000000013
#046321:0023000000000000
#045360:0000000000000014
#046360:0024000000000000
#046320:0000001300000000
#0463b0:0000000000230000
#046361:0000001400002400
#0473b1:1323000000000000
#047321:0000132300000000
#048321:1323000000000000
#0483b1:0000132300000000
#0503a1:0014
#050321:0000000000000000000000000000000000343434343434343400340034003400
#051321:24
#052351:13
#052321:0023000000000000
#0523b0:0013000000000000
#052380:00230000
#053360:14
#0533a0:000000000024000000000000000000000000000000000000
#0533a0:00140000
#053360:000000000000000000000024000000000000000000000000
#0533b0:0000000000000013
#054370:5300005300000000
#0543b0:0033000000230000
#053361:0000000000000014
#054321:5400005400000000
#054361:0034000000240000
#0553a1:1400000000240000
#055351:00000000005400000000000000000000
#0563b1:1300000000000000000000000000005300000000000000000000000000000000
#056371:00000033000000000000000023000000
#056320:00000014000000000000000024000000
#056360:0000000000000000000000000000005400000000000000000000000000000000
#057360:14
#057320:000000000024000000000000000000000000000000000000
#057320:00140000
#057360:000000000000000000000024000000000000000000000000
#057320:000000000000000000000000000000130023000000000000
#057361:000000000000000000000000000000140024000000000000
#060351:000000130023000000000000000000000000000000000000
#060381:000000000000000000130023000000000000000000000000
#062361:1424000000000000
#062361:0000000000000013
#062321:00000000000000000000000000000053
#063341:53
#063361:00530000000000000000000000000000
#063321:0023000000000000
#0623b0:0000000000000013
#062370:00000000000000000000000000000053
#063390:53
#0633b0:00530000000000000000000000000000
#063370:0023000000000000
#063320:00001333
#063360:0000000000530000
#063370:0000000000000053
#064320:33333333
#064360:0053000000530000
#064370:0000005300000053
#065320:23
#066360:1424000000000000
#066360:000000000000000000000014
#0673a0:002400000000000000000000
#0673a0:0014000000240000
#067350:0000005400000000
#069320:13
#069370:0053
#070320:23
#0703b1:13
#070361:0053
#0713b1:23
#0733a1:14
#073351:0054
#0743a1:24
#074320:14
#074370:0054
#075320:24
#076370:00122200000000000000000000000000
#078380:000000130023000000000000000000000000000000000000
#078350:000000000000000000130023000000000000000000000000
