This file was generated by Ched 2.7.0.0.
#TITLE ""
#ARTIST ""
#DESIGNER ""
#DIFFICULTY 0
#PLAYLEVEL
#SONGID ""
#WAVE ""
#WAVEOFFSET 0
#JACKET ""
#REQUEST "ticks_per_beat 480"
#00002: 4
#BPM01: 145
#00008: 01
#TIL00: ""
#VOLUME: ""
#HISPEED 00
#MEASUREHS 00
#00014:00140000
#00012:00000014
#0001a:24
#00018:0024
#0011a:14
#00212:00140014
#00218:2414
#0031a:1414
#00314:00140014
#0041a:14
#00418:00343400
#00512:14
#00514:00343400
#00614:00140014
#0061a:2414
#00718:1414
#00712:00140014
#00818:14
#0081a:00343400
#00914:14
#00912:00343400
#0101a:14
#01012:14
#01018:0014
#01014:00000014
#01010:41
#0111a:14
#01114:0014
#01118:00000014
#01212:14
#0121a:0014
#01214:00000014
#01318:1414
#01312:00140000
#01314:00000014
#0141a:14
#01718:1414
#01714:00140014
#02714:0014
#02718:24000014
#02710:41
#02812:14
#02818:0014
#02814:00000014
#0291a:14
#02912:0014
#02918:00000014
#03014:1414
#0301a:00140000
#03018:00000014
#03118:0014
#03114:00000014
#03112:24
#0321a:14
#03214:0014
#03218:00000014
#03312:14
#03318:00140000
#03314:0014
#0331a:00000014
#03512:14
#03514:0014
#0361a:0014
#0371a:14
#03718:0014
#03710:41
#03814:0014
#03914:14
#03912:0014
#04018:0014
#04118:14
#0411a:0014
#04214:0014
#0431a:1414
#04314:00140014
#04512:1414
#04518:00140014
#04718:1414
#04714:00140014
#0481a:1414
#04812:00140014
#05118:14
#05114:00140000
#0511a:0014
#05112:00000014
#0511f:11
#0521a:14
#05212:00140000
#05218:0014
#05214:00000014
#05318:14
#0531a:00343400
#05414:14
#05412:00343400
#0551a:14
#05518:00343400
#05612:14
#05614:00343400
#05912:14
#0591a:14
#06118:2414
#06114:24000014
#0611f:21
#0621a:14
#06214:0014
#06218:00000014
#06210:41
#06312:14
#0631a:0014
#06314:00000014
#06418:1414
#06412:00140000
#06414:00000014
#06514:0014
#06518:00000014
#0651a:24
#06612:14
#06618:0014
#06614:00000014
#0671a:14
#06714:00140000
#06718:0014
#06712:00000014
#0691a:14
#06918:0014
#07012:0014
#07112:14
#07114:0014
#07218:0014
#07318:14
#0731a:0014
#07414:0014
#07514:14
#07512:0014
#07618:0014
#07812:140034340034000034340034000034340034340034340034
#0181a:24
#01810:41
#0771a:24
#07712:24
#07916:24
#0491a:00343400
#04910:41
#05012:00343400
#0015a:54
#00258:14
#0045a:54
#00552:64
#0065a:14
#00858:64
#00954:54
#0145a:14
#0185a:14
#02758:14
#03152:14
#03552:54
#03554:0024
#0375a:64
#03758:0024
#03954:64
#03952:0024
#04158:54
#0415a:0024
#05454:54
#05358:54
#0555a:64
#05652:54
#0595a:54
#05952:54
#06158:14
#06154:14
#0655a:14
#0695a:64
#06958:0024
#07152:54
#07154:0024
#07358:54
#0735a:0024
#07554:64
#07552:0024
#07852:54
#07956:14
#0013a0:14
#001380:000000000000000000000000340000340000000034000000
#002380:24
#0043a0:14
#004380:00343424
#005320:14
#005340:00343424
#008380:14
#0083a0:00343424
#009340:14
#009320:00343424
#014320:00001424
#015380:14240000
#015340:00001424
#0163a0:14240000
#016320:00001424
#018320:0014
#019340:34
#019320:0034
#020320:24
#0203a0:0014
#021380:34
#0213a0:0034
#0223a0:24
#022340:0014
#023320:34
#023340:0024
#0243a0:1424
#025340:1424
#026380:14
#027380:24
#034320:14240000
#0343a0:00001424
#035320:14
#035340:0054
#036320:24
#0373a0:14
#037380:0054
#0383a0:24
#039340:14
#039320:0054
#040340:24
#041380:14
#0413a0:0054
#042380:24
#0443a0:14000024
#044380:00343400
#046320:14000024
#046340:00343400
#0493a0:14343400
#049380:00000024
#050320:14343400
#050340:00000024
#053380:14
#0533a0:00343424
#054340:14
#054320:00343424
#0553a0:14
#055380:00343424
#056320:14
#056340:00343424
#0573a0:14240000
#057340:00001424
#058380:14240000
#058320:00001424
#0593a0:14
#060380:34
#061380:24
#059321:14
#060341:34
#061341:24
#0683a1:14240000
#068321:00001424
#0693a1:14
#069381:0054
#0703a1:24
#071321:14
#071341:0054
#072321:24
#073381:14
#0733a1:0054
#074381:24
#075341:14
#075321:0054
#076341:24
#078321:140034340034000034340034000034340034340034340034
#079361:24
