This file was generated by Ched 2.7.0.0.
#TITLE ""
#ARTIST ""
#DESIGNER ""
#DIFFICULTY 0
#PLAYLEVEL
#SONGID ""
#WAVE ""
#WAVEOFFSET 0
#JACKET ""
#REQUEST "ticks_per_beat 480"
#00002: 4
#BPM01: 125
#00008: 01
#TIL00: ""
#VOLUME: ""
#HISPEED 00
#MEASUREHS 00
#0091a:14
#0011a:14
#0021a:14
#00312:14
#00412:14
#00518:14
#00510:41
#00614:14
#0071a:14
#00812:14
#01014:14
#01118:14
#01212:14
#01712:0016
#01718:26
#01710:41
#01818:16
#01812:0016
#01918:1616
#02012:1616
#02118:16
#02112:0016
#02110:41
#02218:1616
#02312:16
#02318:0016
#02412:1616
#02518:16
#02512:0014
#02618:14
#02612:0014
#0271a:14
#02714:0014
#03014:14
#0311a:14
#03212:14
#03318:14
#03414:14
#0351a:14
#0351f:11
#03818:14
#04112:0016
#04118:26
#0411f:21
#04312:16
#04318:0016
#04518:1616
#04914:0014
#04918:26
#04910:41
#05018:14
#05012:0014
#05114:0014
#05118:26
#01512:24
#05218:24
#02910:41
#04210:41
#0133a0:14
#0143a0:24
#015320:14
#016320:24
#028380:1434
#029380:24
#036320:1434
#037320:24
#039340:14
#039320:0054
#040320:54
#040340:0024
#042380:1626
#044320:1626
#046320:1626
#047380:1626
#048320:1626
#052380:14
#0523a0:0034
#0533a0:24
