This file was generated by Ched 2.7.0.0.
#TITLE ""
#ARTIST ""
#DESIGNER ""
#DIFFICULTY 0
#PLAYLEVEL
#SONGID ""
#WAVE ""
#WAVEOFFSET 0
#JACKET ""
#REQUEST "ticks_per_beat 480"
#00002: 4
#BPM01: 125
#00008: 01
#TIL00: ""
#VOLUME: ""
#HISPEED 00
#MEASUREHS 00
#00017:12120000
#00015:0000000000130000
#00018:0000000000130000
#00012:0023
#0001b:0023
#00115:0013000000000013
#00118:000000000013000000130000130000000000130000000000
#00112:24231323
#0011b:0000000000130013
#0011a:24
#00218:000000130000000013000000000000000000000000000000
#0021b:000000000000000000000000000000000000000000000000130000000000000000000000000000130000001300000013
#00215:0000001313001300
#0021a:000000000000000000000000000000000000131313131313
#00219:000000000000000000000000000000000000000000000000000000000000000000000000001300000013000000130000
#00212:1300230000130000
#00312:1400000000130013
#00318:0013000000000013
#00315:000000000013000000130000130000000000130000000000
#0031b:00231323
#00414:000000000000000000000000000000000000000000000000000000000000000000000000001300000013000000130000
#00413:000000000000000000000000000000000000231313131313
#00412:000000000000130000000000000000000000130000000000000000000000130000000000000000130000001300000013
#0041b:13231300
#00415:00130000
#00418:0013001300002300
#00512:000000000000130000000000000000000033000000000000
#0051b:1300000013000013
#00518:000033000033000000000000000000000000130000000000
#00515:000000000000000000130000130033330000000000000000
#00510:41
#00618:130000000000000000000000130033330000000000130000
#0061b:000000000000130000000000000000000033000000000000
#00615:000000330033000000000000000000000000130000000000
#00612:1300001313000000
#00712:1300000000000013
#00718:0000000000000013
#0091b:000000000000130000000000000000000033000000000000
#00912:1300000013000013
#00915:000000330033000000000000000000000000130000000000
#00918:130000000000000000130000130033330000000000000000
#01015:130000000000000000000000130033330000000000130000
#01012:000000000000130000000000000000000033000000000000
#01018:000000330033000000000000000000000000130000000000
#0101b:1300001313000000
#0111b:1300000000000013
#01115:0000000000000013
#01312:0013000000000013
#0131b:0013000000001300
#0131a:000000000000000000000000001300000000000000000000
#01313:000000000000000000000000001300000000000000000000
#01315:230000000000000000000023000000000000130000000000
#01318:230000000000000000000023000000000000000000130000
#01412:0013001300130000
#01418:0013001300130023
#0141b:23001313
#01415:23001313
#01712:23000013
#01718:000000130000000000000000130000000000000013000000
#01715:0013000000130013
#0171b:23000013
#01710:41
#0181b:13
#01812:13
#01815:0000130000130000
#01818:0000130000130000
#01912:1300130000130000
#01918:1300130000130000
#0191b:0013000000000000
#01915:0013000000000000
#01913:00000013
#01919:00000013
#01914:0000000000000013
#0191a:0000000000000013
#01212:13
#0081b:13
#02112:23000013
#0211b:2300000000001313
#02115:0013000013000013
#02118:0013000000130000
#02110:41
#02212:1300130000230023
#02218:1300130000230000
#0221b:000000130000000000000000000000000000230000000023
#02215:0013000000002300
#02315:2300001300130013
#0231b:0000001300130013
#02312:0023000023001300
#02318:002300000000230000230000
#02412:0013001323001300
#02418:0013001300002300
#0241b:2300130000130013
#02415:0000230000130013
#02516:0013130013000000
#02512:0000001300000013
#02517:2300001300000013
#0251b:000000000013000000000000130000000000000000000000
#02519:00000013
#02514:00000013
#0261b:130000000000000000000000000000000000000000000000000000000000000000000000000000130000001300000013
#02615:0013000000001300
#0261a:000000000000000000000000000000000000131313131313
#02619:000000000000000000000000000000000000000000000000000000000000000000000000001300000013000000130000
#01519:000000000000000000000000000000000000000000000000000000000000000000000000000000000000000000000000000000000000000000000000000000000000000000000000000000000000000000000000000000000000000000000000000000000000000000000000000000000000000000000000000000000000000000000000000000000000000000000000000000000000000000000000000000000000000000000000000000000000000000000000000000000000000000000000000000000000000000000000000000000000000000000000000000000000000000000000000000000000000000000000000000000000000000000000000000000000000000000000000000000000000000000000000000000000000000000000000000000000000000000000000000000000000000000000000000000000000000000000000000000000000000000000000000000000000000000000000000000000000000000000000000000000000000000000000000000000000000000000000000000000000000000000000000000011000000000000000000000000000000000000000000000000000000000000000000000000000000000000000000000000000000000000000000000000000000000000000000000000000000000000000000000000000000000000000000000000000000000000000000000000000000000000000000000000000000000000000000000000000000000000000000000000000000000000000000000000000000000000000000000000000000000000000000000000000000000000000000000000000000000000000000000000000000000000000000000000000000000000000000000000000000000000000000000000000000000000000000000000000000000000000000000000000000000000000000000000000011000000000000000000000000000000000000000000000000000000000000000000000000000000000000000000000000000000000000000000000000000000000000000000000000000000000000000000000000000000000000000000000000000000000000000000000000000000000000000000000000000000000000000000000000000000000000000000000000000000000000000000000000000000000000000000000000000000000000000000000000000000000000000000000000000000000000000000000000000000000000000000000000000000000000000000000000000000000000000000000000000000000000000000000000000000000000000000000000000000000000000000000000000000000000000000000000000000000000000000000000000000000000000000000000000000000000000000000000000000000000000000000000000000000000000000000000000000000000000000000000000000000000000000000000000000000000000000000000000000000000000000000000000000000000000000000000000000000000000000000000000000000000000000000000000000000000000000000000000000000000000000000000000000000000000000000000000000000000000000000000000000000000000000000000000000000000000000000000000000000000000000000000000000000000000000000000000000000000000000000000000000000000000000000000000000000000000000000000000000000000000000000000000000000000000000000000000000000000000000000000000000000000000000000000000000000000000000000000000000000000000000000000000000000000000000000000000000000000000000000000000000000000000000000000000000000000000000000000000000000000000000000000000000000000000000000000000000000000000000000000000000000000000000000000000000000000000000000000000000000000000000000000000000000000000000000000000000000000000000000000000000000000000000000000000000000000000000000000000000000000000000000000000000000000000000000000000000000000000000000000000000000000000000000000000000000000000000000000000000000000000000000000000000000000000000000000000000000000000000000000000000000000000000000000000000000000000000000000000000000000000000000000000000000000000000000000000000000000000000000000000000000000000000000000000000000000000000000000000000000000000000000000000000000000000000000000000000000000000000000000000000000000000000000000000000000000000000000000000000000000000000000000000000000000000000000000000000000000000000000000000000000000000000000000000000000000000000000000000000000000000000000000000000000000000000000000000000000000000000000000000000000000000000000000000000000000000000000000000000000000000000000000000000000000000000000000000000000000000000000000000000000000000000000000000000000000000000000000000000000000000000000000000000
#01516:000000000000000000000000000000000000000000000000000000170000000000000000000000000017000000000000000000000000000000000000000000000000000000000000000000000000000000000000000000000000000000000000
#01512:23
#01618:1300130000000013
#0161b:0013001300001300
#01612:23232313
#01615:000000000013
#02717:0013130013000000
#0271b:0000001300000000
#02716:2300001300000000
#02712:000000000013000000000000130000000000000000000000
#02714:00000013
#02719:00000013
#0281a:14142400
#02812:000014000014000000000000
#02816:002400002400000000000000
#02815:000000000000002300000000
#02818:0000000000230000
#02917:001414000000001400000000
#0291a:000000001414000000000000
#02914:00140000
#02912:0014
#02910:41
#0301b:0000000000000013
#03012:000000002424000000000000
#03015:002424000000002400000000
#0301a:2424
#03018:00240000
#03017:00000024
#03118:1300000000131300
#03115:000000130000000000130000000013000013000000130000
#0311b:00131300
#03112:00131300
#03212:1314161713000000
#0321b:0000002313000000
#03215:0000000000131300
#03218:000000260000000000000000000013000013000000000000
#03217:27
#0321a:00240000
#03312:2313
#03319:000000000000001300000000
#03314:0000000000130000
#0331b:000000000000000000000000000000000013000000000000
#03316:00000013
#03317:23
#0341b:2313
#03414:000000000000001300000000
#03419:0000000000130000
#03412:000000000000000000000000000000000013000000000000
#03417:00000013
#03416:23
#03514:0000000000130000
#03513:00000013
#03512:0000000000000013
#0351a:0000000000130000
#03519:00000013
#03518:0000000000000013
#03515:0013
#0351f:11
#03717:13000000000000130000000023000000
#03712:13000000000000130000000023000000
#03716:0013000000000000
#0371b:0013000000000000
#03715:0000000000000000000000000000000000130000000000000000000000000000
#0371a:0000000000000000000000000000000000130000000000000000000000000000
#03816:13
#0381b:13000013
#03817:0013000013000000
#03812:0013000013001300
#03814:0000001300130000
#03819:0000001300130000
#03815:0000000000000023
#04112:24001313
#0411b:000000000000000000000000000000130000000013000013
#04115:0013000000130013
#04118:0013000013001300
#0411a:24
#0411f:21
#04215:1300000000130000
#04212:000000000013000013000000000000000000000000000000
#04218:0000131300001300
#0421b:000000000000001300000000
#04210:41
#04312:1300000000000013
#04317:1300000000000013
#04319:0013000000001300
#04314:0013000000001300
#04316:0000130000130000
#0431b:0000130000130000
#04512:2400000000131300
#0451b:0000000013001313
#04516:0000000000000013
#04515:0013000013000000
#04518:0013000000130000
#0451a:24
#04614:13130023
#0461b:0013000000000000
#04616:0013000000000000
#04619:130000000000130000000000000000000000230000000023
#04617:0000000000230023
#04612:0000000000230023
#04716:0023001300130000
#0471b:000023000000000000130000000000130000230000000000
#04717:0000000013000013
#04712:0000000023000013
#04714:23
#04812:2300001323000013
#04817:0000001300000013
#0481b:0013230000132300
#04816:0013000000130000
#04912:00130013
#04914:0013000000000000
#04918:0000001300001300
#04915:000000000000000000000013000013000000000000130000
#0491b:0000130000130000
#04916:23
#04910:41
#05012:1300130000130000
#0501b:130000000000000000000000130000000000000000000000000000000000000000000000000000130000001300000013
#05018:000000130000000000000013000013000000000000000000
#05015:0000001300001300
#0501a:000000000000000000000000000000000000131313131313
#05019:000000000000000000000000000000000000000000000000000000000000000000000000001300000013000000130000
#05115:0000001300001300
#05118:000000000013000000000013000013000000000000130000
#05112:2300130000130000
#0511b:00000013
#05116:000000000013000000000000000000000000000000000000000000000000000000000000000000000000000000000000
#05215:000000130000000000000013000000000000000000000000
#05212:1300240000132300
#05218:0000001300000000
#0521b:00130000
#05216:0000000000001413
#0521a:2424
#02012:0023002300001300
#0201b:23230013
#02018:000000230000000000230000000000000000000013000000
#02015:2300230000000013
#04012:0013001300001300
#0401b:23232313
#04018:000000000013
#04015:1300130000000013
#0441b:23000013
#04412:0000232300001300
#04415:000000000013
#04418:0000000000000013
#04416:23
#04419:0023000000000000
#04417:0000232300000000
#04414:0023000000000000
#03916:000000000000000000000000000000000000000000000000000000000000000000000000000000000000000000000000000000000000000000000000000000000000000000000000000000000000000000000000000000000000000000000000000000000000000000000000000000000000000000000000000000000000000000000000000000000000000000000000000000000000000000000000000000000000000000000000000000000000000000000000000000000000000000000000000000000000000000000000000000000000000000000000000000000000000000000000000000000000000000000000000000000000000000000000000000000000000000000000000000000000000000000000000000000000000000000000000000000000000000000000000000000000000000000000000000000000000000000000000000000000000000000000000000000000000000000000000000000000000000000000000000000000000000000000000000000000000000000000000000000000000000000000000000000011000000000000000000000000000000000000000000000000000000000000000000000000000000000000000000000000000000000000000000000000000000000000000000000000000000000000000000000000000000000000000000000000000000000000000000000000000000000000000000000000000000000000000000000000000000000000000000000000000000000000000000000000000000000000000000000000000000000000000000000000000000000000000000000000000000000000000000000000000000000000000000000000000000000000000000000000000000000000000000000000000000000000000000000000000000000000000000000000000000000000000000000000000011000000000000000000000000000000000000000000000000000000000000000000000000000000000000000000000000000000000000000000000000000000000000000000000000000000000000000000000000000000000000000000000000000000000000000000000000000000000000000000000000000000000000000000000000000000000000000000000000000000000000000000000000000000000000000000000000000000000000000000000000000000000000000000000000000000000000000000000000000000000000000000000000000000000000000000000000000000000000000000000000000000000000000000000000000000000000000000000000000000000000000000000000000000000000000000000000000000000000000000000000000000000000000000000000000000000000000000000000000000000000000000000000000000000000000000000000000000000000000000000000000000000000000000000000000000000000000000000000000000000000000000000000000000000000000000000000000000000000000000000000000000000000000000000000000000000000000000000000000000000000000000000000000000000000000000000000000000000000000000000000000000000000000000000000000000000000000000000000000000000000000000000000000000000000000000000000000000000000000000000000000000000000000000000000000000000000000000000000000000000000000000000000000000000000000000000000000000000000000000000000000000000000000000000000000000000000000000000000000000000000000000000000000000000000000000000000000000000000000000000000000000000000000000000000000000000000000000000000000000000000000000000000000000000000000000000000000000000000000000000000000000000000000000000000000000000000000000000000000000000000000000000000000000000000000000000000000000000000000000000000000000000000000000000000000000000000000000000000000000000000000000000000000000000000000000000000000000000000000000000000000000000000000000000000000000000000000000000000000000000000000000000000000000000000000000000000000000000000000000000000000000000000000000000000000000000000000000000000000000000000000000000000000000000000000000000000000000000000000000000000000000000000000000000000000000000000000000000000000000000000000000000000000000000000000000000000000000000000000000000000000000000000000000000000000000000000000000000000000000000000000000000000000000000000000000000000000000000000000000000000000000000000000000000000000000000000000000000000000000000000000000000000000000000000000000000000000000000000000000000000000000000000000000000000000000000000000000000000000000000000000000000000000000000000000000000000000000000000000000000000000000000000000000000000000000000000000000000000000000000000000000000000000000
#03913:000000000000000000000000000000000000000000000000000000170000000000000000000000000017000000000000000000000000000000000000000000000000000000000000000000000000000000000000000000000000000000000000
#0391b:23
#03617:23
#0531b:23
#00055:0000000000230000
#00058:0000000000230000
#00052:00005334
#0005b:0053
#0005a:00000044
#00259:000000000000000000000000000000000000000000000000000000000000000000000000002300000023000000230000
#0025a:000000000000000000000000000000000000636363636363
#0025b:000000000000000000000000000000000000000000000000000000000000000000000000000000230000002300000023
#00255:00000013
#00454:000000000000000000000000000000000000000000000000000000000000000000000000002300000023000000230000
#00453:000000000000000000000000000000000000535353535353
#00452:000000000000000000000000000000000000000000000000000000000000000000000000000000230000002300000023
#00458:00000013
#0075b:00000013
#00755:00000013
#00555:0053
#0055b:53
#00552:00000013
#00558:00130000
#00658:0063
#00652:63
#0065b:00130000
#00655:00000013
#00852:00000013
#00858:00000013
#00958:0063
#00952:63
#0095b:00000013
#00955:00130000
#01052:00130000
#01058:00000013
#01055:0053
#0105b:53
#01152:00000013
#01158:00000013
#0125b:00000013
#01255:00000013
#01352:0023000000000000
#0135b:0023000000000000
#0135a:000000000000000000000000002300000000000000000000
#01353:000000000000000000000000002300000000000000000000
#01355:530000000000130000000053000000000000000000000000
#01358:530000000000130000000053000000000000000000000000
#01452:0023000000000000
#01458:0023000000000000
#01455:53
#0145b:63
#01858:0000530000630000
#01852:1300001300000000
#0185b:1300001300000000
#01855:0000530000630000
#01955:000000000000000000000013000000000000000000000000
#0195b:000000000000000000000013000000000000000000000000
#02058:000000000000000000000013000000000000000000000000
#02052:000000000000000000000013000000000000000000000000
#02255:000000000000000000000013000000000000000000000000
#0225b:000000000000000000000013000000000000000000000000
#02352:000000000013000000000000630000000000530000000000
#02358:000000000013000000000000000000000000000000000000
#02355:0000000000230023
#02458:0023002300000000
#0245b:53630000
#02455:0000000000230023
#02452:00005353
#02552:13
#02557:63
#02556:0013
#0255b:0013
#02652:0013
#02658:0013
#02655:00000013
#0265a:000000000000000000000000000000000000636363636363
#02659:000000000000000000000000000000000000000000000000000000000000000000000000002300000023000000230000
#0265b:000000000000000000000000000000000000000000000000000000000000000000000000000000230000002300000023
#01559:000000000000000000000000000000000000000000000000000000000000000000000000000000000000000000000000000000000000000000000000000000000000000000000000000000000000000000000000000000000000000000000000000000000000000000000000000000000000000000000000000000000000000000000000000000000000000000000000000000000000000000000000000000000000000000000000000000000000000000000000000000000000000000000000000000000000000000000000000000000000000000000000000000000000000000000000000000000000000000000000000000000000000000000000000000000000000000000000000000000000000000000000000000000000000000000000000000000000000000000000000000000000000000000000000000000000000000000000000000000000000000000000000000000000000000000000000000000000000000000000000000000000000000000000000000000000000000000000000000000000000000000000000000000021000000000000000000000000000000000000000000000000000000000000000000000000000000000000000000000000000000000000000000000000000000000000000000000000000000000000000000000000000000000000000000000000000000000000000000000000000000000000000000000000000000000000000000000000000000000000000000000000000000000000000000000000000000000000000000000000000000000000000000000000000000000000000000000000000000000000000000000000000000000000000000000000000000000000000000000000000000000000000000000000000000000000000000000000000000000000000000000000000000000000000000000000000021000000000000000000000000000000000000000000000000000000000000000000000000000000000000000000000000000000000000000000000000000000000000000000000000000000000000000000000000000000000000000000000000000000000000000000000000000000000000000000000000000000000000000000000000000000000000000000000000000000000000000000000000000000000000000000000000000000000000000000000000000000000000000000000000000000000000000000000000000000000000000000000000000000000000000000000000000000000000000000000000000000000000000000000000000000000000000000000000000000000000000000000000000000000000000000000000000000000000000000000000000000000000000000000000000000000000000000000000000000000000000000000000000000000000000000000000000000000000000000000000000000000000000000000000000000000000000000000000000000000000000000000000000000000000000000000000000000000000000000000000000000000000000000000000000000000000000000000000000000000000000000000000000000000000000000000000000000000000000000000000000000000000000000000000000000000000000000000000000000000000000000000000000000000000000000000000000000000000000000000000000000000000000000000000000000000000000000000000000000000000000000000000000000000000000000000000000000000000000000000000000000000000000000000000000000000000000000000000000000000000000000000000000000000000000000000000000000000000000000000000000000000000000000000000000000000000000000000000000000000000000000000000000000000000000000000000000000000000000000000000000000000000000000000000000000000000000000000000000000000000000000000000000000000000000000000000000000000000000000000000000000000000000000000000000000000000000000000000000000000000000000000000000000000000000000000000000000000000000000000000000000000000000000000000000000000000000000000000000000000000000000000000000000000000000000000000000000000000000000000000000000000000000000000000000000000000000000000000000000000000000000000000000000000000000000000000000000000000000000000000000000000000000000000000000000000000000000000000000000000000000000000000000000000000000000000000000000000000000000000000000000000000000000000000000000000000000000000000000000000000000000000000000000000000000000000000000000000000000000000000000000000000000000000000000000000000000000000000000000000000000000000000000000000000000000000000000000000000000000000000000000000000000000000000000000000000000000000000000000000000000000000000000000000000000000000000000000000000000000000000000000000000000000000000000000000000000000000000000000000000000000000000000000
#01556:000000000000000000000000000000000000000000000000000000670000000000000000000000000067000000000000000000000000000000000000000000000000000000000000000000000000000000000000000000000000000000000000
#01552:13
#01658:63631300
#0165b:0023002300000000
#01652:13131300
#02756:53
#02752:0013
#02757:0013
#0275a:13
#02952:1414
#02954:00140000
#02957:000000000000006400000000
#03058:00140000
#0305a:1414
#03055:000000000000006400000000
#0315b:00130000
#03158:00000013
#03255:00000013
#03357:13
#03352:13
#03456:13
#0345b:13
#03457:00000053
#03657:13
#0365b:00000013
#03656:00000013
#03752:63000000130000530000000000000000
#03757:63000000130000530000000000000000
#03756:0023000000000000
#0375b:0023000000000000
#03755:0000000000000000000000000000000000230000000000000000000000000000
#0375a:0000000000000000000000000000000000230000000000000000000000000000
#03856:53
#0385b:53
#03857:0023000000000000
#03852:0023000000000000
#04255:1300000000630000
#04258:0000001300000000
#04756:000000000013000000000000000000230000000000000000
#0475b:000000000013000000000000000000000000630000000000
#04752:0053
#04757:0000000000000023
#04857:0000002300000023
#04856:0023000000230000
#04852:5353
#0485b:00630063
#04356:000000000000000000000013000000000000000000000000
#0435b:000000000000000000000013000000000000000000000000
#04457:000000000000000000000013000000000000000000000000
#04452:000000000000000000000013000000000000000000000000
#04652:000000000000000000000013000000000000000000000000
#04657:000000000000000000000013000000000000000000000000
#0495b:13
#04956:13
#05055:00000013
#0505b:000000000000000000000000000000000000000000000000000000000000000000000000000000230000002300000023
#0505a:000000000000000000000000000000000000636363636363
#05059:000000000000000000000000000000000000000000000000000000000000000000000000002300000023000000230000
#05152:63
#05156:000000000023000000000000000000000000000000000000000000000000000000000000000000000000000000000000
#01755:0023000000000000
#01758:0023000000000000
#01752:53340000
#0175b:53
#0175a:00440000
#02155:0023000000000000
#02158:0023000000000000
#02152:53340000
#0215b:53
#0215a:00440000
#04155:0023000000000000
#04152:54350000
#04158:0023000000000000
#0415a:64
#04159:00450000
#04555:0023000000000000
#04558:0023000000000000
#04552:54350000
#0455a:64
#04559:00450000
#05256:0000000000001423
#05252:00000053
#04055:53531300
#0405b:13131300
#04052:0023002300000000
#0395b:13
#03956:000000000000000000000000000000000000000000000000000000000000000000000000000000000000000000000000000000000000000000000000000000000000000000000000000000000000000000000000000000000000000000000000000000000000000000000000000000000000000000000000000000000000000000000000000000000000000000000000000000000000000000000000000000000000000000000000000000000000000000000000000000000000000000000000000000000000000000000000000000000000000000000000000000000000000000000000000000000000000000000000000000000000000000000000000000000000000000000000000000000000000000000000000000000000000000000000000000000000000000000000000000000000000000000000000000000000000000000000000000000000000000000000000000000000000000000000000000000000000000000000000000000000000000000000000000000000000000000000000000000000000000000000000000000021000000000000000000000000000000000000000000000000000000000000000000000000000000000000000000000000000000000000000000000000000000000000000000000000000000000000000000000000000000000000000000000000000000000000000000000000000000000000000000000000000000000000000000000000000000000000000000000000000000000000000000000000000000000000000000000000000000000000000000000000000000000000000000000000000000000000000000000000000000000000000000000000000000000000000000000000000000000000000000000000000000000000000000000000000000000000000000000000000000000000000000000000000021000000000000000000000000000000000000000000000000000000000000000000000000000000000000000000000000000000000000000000000000000000000000000000000000000000000000000000000000000000000000000000000000000000000000000000000000000000000000000000000000000000000000000000000000000000000000000000000000000000000000000000000000000000000000000000000000000000000000000000000000000000000000000000000000000000000000000000000000000000000000000000000000000000000000000000000000000000000000000000000000000000000000000000000000000000000000000000000000000000000000000000000000000000000000000000000000000000000000000000000000000000000000000000000000000000000000000000000000000000000000000000000000000000000000000000000000000000000000000000000000000000000000000000000000000000000000000000000000000000000000000000000000000000000000000000000000000000000000000000000000000000000000000000000000000000000000000000000000000000000000000000000000000000000000000000000000000000000000000000000000000000000000000000000000000000000000000000000000000000000000000000000000000000000000000000000000000000000000000000000000000000000000000000000000000000000000000000000000000000000000000000000000000000000000000000000000000000000000000000000000000000000000000000000000000000000000000000000000000000000000000000000000000000000000000000000000000000000000000000000000000000000000000000000000000000000000000000000000000000000000000000000000000000000000000000000000000000000000000000000000000000000000000000000000000000000000000000000000000000000000000000000000000000000000000000000000000000000000000000000000000000000000000000000000000000000000000000000000000000000000000000000000000000000000000000000000000000000000000000000000000000000000000000000000000000000000000000000000000000000000000000000000000000000000000000000000000000000000000000000000000000000000000000000000000000000000000000000000000000000000000000000000000000000000000000000000000000000000000000000000000000000000000000000000000000000000000000000000000000000000000000000000000000000000000000000000000000000000000000000000000000000000000000000000000000000000000000000000000000000000000000000000000000000000000000000000000000000000000000000000000000000000000000000000000000000000000000000000000000000000000000000000000000000000000000000000000000000000000000000000000000000000000000000000000000000000000000000000000000000000000000000000000000000000000000000000000000000000000000000000000000000000000000000000000000000000000000000000000000000000000000000000000000
#03953:000000000000000000000000000000000000000000000000000000570000000000000000000000000057000000000000000000000000000000000000000000000000000000000000000000000000000000000000000000000000000000000000
#0003b0:0013
#000380:0000000000530000
#0003a0:00000024
#000321:00001324
#000351:0000000000530000
#0023a1:000000000000000000000000000000000000135353535353
#002391:000000000000000000000000000000000000000000000000000000000000000000000000005300000053000000530000
#0023b1:000000000000000000000000000000000000000000000000000000000000000000000000000000530000005300000053
#0033a1:23
#004331:000000000000000000000000000000000000135353535353
#004341:000000000000000000000000000000000000000000000000000000000000000000000000005300000053000000530000
#004321:000000000000000000000000000000000000000000000000000000000000000000000000000000530000005300000053
#005331:23
#0053b0:13
#005380:000033000033230000000000000000000000000000000000
#005350:000000000000000000000000130033330000000000000000
#005320:000000000000000000000000000000000033230000000000
#006320:13
#006350:000000330033230000000000000000000000000000000000
#006380:000000000000000000000000130033330000000000000000
#0063b0:000000000000000000000000000000000033230000000000
#007380:13
#0073b0:0023000000000000
#007321:0013000000000000
#007351:00230000
#007380:00130000
#0073a0:003300
#0073b0:0000002300000000
#007321:0000001300000000
#007341:000000000000000000000033000000000000000000000000
#007351:0023
#0073b0:000000000000000000000000130033330033230000000000
#007351:0000000000132300
#008351:13
#008321:0023000000000000
#0083b0:0013000000000000
#008380:00230000
#008351:00130000
#008321:0000002300000000
#0083b0:0000001300000000
#008390:000000000000000000000033000000000000000000000000
#008380:0023
#008321:000000000000000000000000130033330033230000000000
#008380:0000000000132300
#009320:13
#009350:000000330033230000000000000000000000000000000000
#009380:000000000000000000000000130033330000000000000000
#0093b0:000000000000000000000000000000000033230000000000
#0103b0:13
#010380:000000330033230000000000000000000000000000000000
#010350:000000000000000000000000130033330000000000000000
#010320:000000000000000000000000000000000033230000000000
#011350:13
#011320:0023000000000000
#0113b1:0013000000000000
#011381:00230000
#011350:00130000
#011330:003300
#011320:0000002300000000
#0113b1:0000001300000000
#011391:000000000000000000000033000000000000000000000000
#011381:0023
#011320:000000000000000000000000130033330033230000000000
#011381:0000000000132300
#012381:13
#0123b1:0023000000000000
#012320:0013000000000000
#012340:000000000033000000000000000000000000000000000000
#012350:00230000
#012381:00130000
#0123a1:003300
#0123b1:0000002300000000
#012320:0000001300000000
#012340:000000000000000000000033000000000000000000000000
#012350:0023
#0123b1:000000000000000000000000130033330033230000000000
#012350:0000000000132300
#013350:13230000
#013320:0053000000000000
#013381:13230000
#0133b1:0053000000000000
#013381:000000000000000000000013000000230000000000000000
#0133a1:000000000000000000000000005300000000000000000000
#013350:000000000000000000000013000000230000000000000000
#013330:000000000000000000000000005300000000000000000000
#014350:13230000
#014320:0053000000000000
#0143b1:13230000
#014381:0053000000000000
#014381:0000000000000013
#015381:330000000053000000000000530000000000000000000000
#015391:000000000000000000000000000000000000000000000000000000000000000000000000000000000000000000000000000000000000000000000000000000000000000000000000000000000000000000000000000000000000000000000000000000000000000000000000000000000000000000000000000000000000000000000000000000000000000000000000000000000000000000000000000000000000000000000000000000000000000000000000000000000000000000000000000000000000000000000000000000000000000000000000000000000000000000000000000000000000000000000000000000000000000000000000000000000000000000000000000000000000000000000000000000000000000000000000000000000000000000000000000000000000000000000000000000000000000000000000000000000000000000000000000000000000000000000000000000000000000000000000000000000000000000000000000000000000000000000000000000000000000000000000000000000051000000000000000000000000000000000000000000000000000000000000000000000000000000000000000000000000000000000000000000000000000000000000000000000000000000000000000000000000000000000000000000000000000000000000000000000000000000000000000000000000000000000000000000000000000000000000000000000000000000000000000000000000000000000000000000000000000000000000000000000000000000000000000000000000000000000000000000000000000000000000000000000000000000000000000000000000000000000000000000000000000000000000000000000000000000000000000000000000000000000000000000000000000051000000000000000000000000000000000000000000000000000000000000000000000000000000000000000000000000000000000000000000000000000000000000000000000000000000000000000000000000000000000000000000000000000000000000000000000000000000000000000000000000000000000000000000000000000000000000000000000000000000000000000000000000000000000000000000000000000000000000000000000000000000000000000000000000000000000000000000000000000000000000000000000000000000000000000000000000000000000000000000000000000000000000000000000000000000000000000000000000000000000000000000000000000051000000000000000000000000000000000000000000000000000000000000000000000000000000000000000000000000000000000000000000000000000000000000000000000000000000000000000000000000000000000000000000000000000000000000000000000000000000000000000000000000000000000000000000000000000000000000000000000000000000000000000000000000000000000000000000000000000000000000000000000000000000000000000000000000000000000000000000000000000000000000000000000000000000000000000000000000000000000000000000000000000000000000000000000000000000000000000000000000000000000000000000000000000000000000000000000000000000000000000000000000000000000000000000000000000000000000000000000000000000000000000000000000000000000000000000000000000000000000000000000000000000000000000000000000000000000000000000000000000000000000000000000000000000000000000000000000000000000000000000000000000000000000000000000000000000000000000000000000000000000000000000000000000000000000000000000000000000000000000000000000000000000000000000000000000000000000000000000000000000000000000000000000000000000000000000000000000000000000000000000000000000000000000000000000000000000000000000000000000000000000000000000000000000000000000000000000000000000000000000000000000000000000000000000000000000000000000000000000000000000000000000000000000000000000000000000000000000000000000000000000000000000000000000000000000000000000000000000000000000000000000000000000000000000000000000000000000000000000000000000000000000000000000000000000000000000000000000000000000000000000000000000000000000000000000000000000000000000000000000000000000000000000000000000000000000000000000000000000000000000000000000000000000000000000000000000000000000000000000000000000000000000000000000000000000000000000000000000000000000000000000000000000000000000000000000000000000000000000000000000000000000000000000000000000000000000000000000000000000000000000000000000000000000000000000000000000000000000000000000000000
#015361:000000000000000000000000000000000000000000000000000000570000000000000000000000000057000000000000000000000000000000000000000000000000000000000000000000000000000000000000000000000000000000000000
#016381:33332300
#0163b1:0053005300000000
#0173b1:13
#017381:0053000000000000
#0173a1:00240000
#017320:13240000
#017350:0053000000000000
#018380:00130000
#0183b0:0000002300000000
#018351:00130000
#018321:0000002300000000
#018351:0000000000130000
#018321:00000023
#018380:0000000000130000
#0183b0:00000023
#019350:000000000000000000130023000000000000000000000000
#0193b1:000000000000000000130023000000000000000000000000
#020381:000000000000000000130023000000000000000000000000
#020320:000000000000000000130023000000000000000000000000
#0213b0:13
#021380:0053000000000000
#0213a0:00240000
#021321:13240000
#021351:0053000000000000
#022351:000000000000000000130023000000000000000000000000
#0223b0:000000000000000000130023000000000000000000000000
#023380:000013000023000000000000000000000000000000000000
#023321:000000130023000000000000000000000000000000000000
#023321:00001333
#023351:0000000000330033
#024321:23
#0243b0:13332300
#024380:0033003300000000
#024321:00001333
#024351:0000000000330033
#025321:23
#025370:13
#0253b0:0023000000000000
#026380:00132300
#026321:000013230000
#0263a1:000000000000000000000000000000000000135353535353
#026391:000000000000000000000000000000000000000000000000000000000000000000000000005300000053000000530000
#0263b1:000000000000000000000000000000000000000000000000000000000000000000000000000000530000005300000053
#0273a1:23
#027360:13
#027320:0023000000000000
#028320:000000000000000000143434
#029320:24
#028371:000000000000000000143434
#029371:24
#029371:000000000000001400000000
#0293a1:000000000000000000340034
#0303a1:24
#029350:000000000000000000140034
#030350:24
#030350:000000000000001400000000
#030320:000000000000000000000000000000000000340000340034
#031320:24
#032320:000000000000000000000000000000000000000000133333
#033320:23
#032371:000000000000000000000000000000000000000000133333
#033371:23
#0333b1:0013230000000000
#033350:000000000000130033230000000000000000000000000000
#033381:000000000000000000130033230000000000000000000000
#0333b1:000000000000000000000000000000000000000000133333
#0343b1:23
#033360:000000000000000000000000000000000000000000133333
#034360:23
#034320:0013230000000000
#034381:000000000000130033230000000000000000000000000000
#034350:000000000000000000130033230000000000000000000000
#034370:00000013
#0353b0:23
#035351:13
#035321:0023000000000000
#0353b0:0013000000000000
#035390:000000000033000000000000000000000000000000000000
#035380:00230000
#035351:00130000
#035321:0000002300000000
#0353b0:0000001300000000
#035380:0023
#036320:120000000000000000000000000000000000000000000000000000000000000000000000000000000000000000000000000000000000000000000000000000000000000000000000000000000000000000000000000000000000000000000000000000000000000000000000000000000000000000000000000000000000000000000000000000000000000000000000000000000000000000000000000000000000000000000000000000000000000000000000000000000000000000000000000000000000000000000000000000000000000000000000000000000000000000000000000000000000000000000000000000000000000000000000000000000000000000000000000000000000000000000000000000000000000000000000000000000000000000000000000000000000000000000000000000000000000000000000000000000000000000000000000000000000000000000000000000000000000000000000000000000000000000000000000000000000000000000000000000000000000000000000000000000000000000000000000000000000000000000000000000000000000000000000000000000000000000000000000000000000000000000000000000000000000000000000000000000000000000000000000000000000000000000000000000000000000000000000000000000000000000000000000000000000000000000000000000000000000000000000000000000000000000000000000000000000000000000000000000000000000000000000000000000000000000000000000000000000000000000000000000000000000000000000000000000000000000000000000000000000000000000000000000000000000000000000000000000000000000000000000000000000000000000000000000000000000000000000000000000000000000000000000000000000000000000000000000000000000000000000000000000000000000000000000000000000000000000000000000000000000000000000000000000000000000000000000000000000000000000000000000000000000000000000000000000000000000000000000000000000000000000000000000000000000000000000000000000000000000000000000000000000000000000000000000000000000000000000000000000000000000000000000000000000000000000000000000000000000000000000000000000000000000000000000000000000000000000000000000000000000000000000000000000000000000000000000000000000000000000052330000000000000000000000000000000000000000000000000000000000000000000000000000000000000000000000000000000000000000000000000000000000000000000000000000000000005300000000000000000000000000000000000000000000000000000000000000000000000000000000000000000000000000000000000000000000000000000000000000000000000000000000000000000000000000000000000000000000000000000000000000000000000000000000000000000000000000000000000000000000000000000000000000000000000000000000000000000000000000000000000000000000000000000000000000000000000000000000000000000000000000000000000000000000000000000000000000000000000000000000000000000000000000000000000000000000000000000000000000000000000000000000000000000000000000000000000000000000000000000000000000000000000000000000000000000000000000000000000000000000000000000000000000000000000000000000000000000000000000000000000000000000000000000000000000000000000000000000000000000000000000000000000000000000000000000000000000000000000000000000000000000000000000000000000000000000000000000000000000000000000000000000000000000000000000000000000000000000000000000000000000000000000000000000000000000000000000000000000000000000000000000000000000000000000000000000000000000000000000000000000000000000000000000000000000000000000000000000000000000000000000000000000000000000000000000000000000000000000000000000000000000000000000000000000000000000000000000000000000000000000000000000000000000000000000000000000000000000000000000000000000000000000000000000000000000000000000000000000000000000000000000000000000000000000000000000000000000000000000000000000000000000000000000000000000000000000000000000000000000000000000000000000000000000000000000000000000000000000000000000000000000000000000000000000000000000000000000000000000000000000000000000000000000000000000000000000000000000000000000000000000000000000000000000000000000000000000000000000000000000000000000000000000000000000000000000000000000000000000000000
#036330:000000000000000000000000000000000000000000000000000000000000000000000000000000000000000000000000000000000000000000000000000000000000000000000000000000000000000000000000000000000000000000000000000000000000000000000000000000000000000000000000000000000000000000000000000000000000000000000000000000000000000000000000000000000000000000000000000000000000000000000000000000000000000000000000000000000000000000000000000000000000000000000000000000000000000000000000000000000000000000000000000000000000000000000000000000000000000000000000000000000000000000000000000000000000000000000000000000000000000000000000000000000000000000000000000000000000000000000000000000000000000000000000000000000000000000000000000000000000000000000000000000000000000000000000000000000000000000000000000000000000000000000000000000000000000000000000000000000000000000000000000000000000000000000000000000000000000000000000000000000000000000000000000000000000000000000000000000000000000000000000000000000000000000000000000000000000000000000000000000000000000000000000000000000000000000000000000000000000000000000000000000000000000000000000000000000000000000000000000000000000000000000000000000000000000000000000000000000000000000000000000000000000000000000000000000000000000000000000000000000000000000000000000000000000000000000000000000000000000000000000000000000000000000000000000000000000000000000000000000000000000000000000000000000000000000000000000000000000000000000000000000000000000000000000000000000000000000000000000000000000000000000000000000000000000000000000000000000000000000000000000000000000000000000000000000000000000000000000000000000000000000000000000000000000000000000000000000000000000000000000000000000000000000000000000000000000000000000000000000000000000000000000000000000000000000000000000000000000000000000000000000000000000000000000000000000000000000000000000000000000000000000000000000000000000000000000000000000000000000000000000000000000000000000000000000000000000000000000000000000000000000000000000000000000000000000000000000000000000000000000000000000000000000000000000000000000000053000000000000000000000000000000000000000000000000000000000000000000000000000000000000000000000000000000000000000000000000000000000000000000000000000000000000530000000000000000000000000000000000000000000000000000000000000000000000000000000000000000000000000000000000000000000000000000000000000000000000000000000000000000000000000000000000000000000000000000000000000000000000000000000000000000000000000000000000000000000000000000000000000000000000000000000000000000000000000000000000000000000000000000000000000000000000000000000000000000000000000000000000000000000000000000000000000000000000000000000000000000000000000000000000000000000000000000000000000000000000000000000000000000000000000000000000000000000000000000000000000000000000000000000000000000000000000000000000000000000000000000000000000000000000000000000000000000000000000000000000000000000000000000000000000000000000000000000000000000000000000000000000000000000000000000000000000000000000000000000000000000000000000000000000000000000000000000000000000000000000000000000000000000000000000000000000000000000000000000000000000000000000000000000000000000000000000000000000000000000000000000000000000000000000000000000000000000000000000000000000000000000000000000000000000000000000000000000000000000000000000000000000000000000000000000000000000000000000000000000000000000000000000000000000000000000000000000000000000000000000000000000000000000000000000000000000000000000000000000000000000000000000000000000000000000000000000000000000000000000000000000000000000000000000000000000000000000000000000000000000000000000000000000000000000000000000000000000000000000000000000000000000000000000000000000000000000000000000000000000000000000000000000000000000000000000000000000000000000000000000000000000000000000
#036340:000000000000000000000000000000000000000000000000000000000000000000000000000000000000000000000000000000000000000000000000000000000000000000000000000000000000000000000000000000000000000000000000000000000000000000000000000000000000000000000000000000000000000000000000000000000000000000000000000000000000000000000000000000000000000000000000000000000000000000000000000000000000000000000000000000000000000000000000000000000000000000000000000000000000000000000000000000000000000000000000000000000000000000000000000000000000000000000000000000000000000000000000000000000000000000000000000000000000000000000000000000000000000000000000000000000000000000000000000000000000000000000000000000000000000000000000000000000000000000000000000000000000000000000000000000000000000000000000000000000000000000000000000000000000000000000000000000000000000000000000000000000000000000000000000000000000000000000000000000000000000000000000000000000000000000000000000000000000000000000000000000000000000000000000000000000000000000000000000000000000000000000000000000000000000000000000000000000000000000000000000000000000000000000000000000000000000000000000000000000000000000000000000000000000000000000000000000000000000000000000000000000000000000000000000000000000000000000000000000000000000000000000000000000000000000000000000000000000000000000000000000000000000000000000000000000000000000000000000000000000000000000000000000000000000000000000000000000000000000000000000000000000000000000000000000000000000000000000000000000000000000000000000000000000000000000000000000000000000000000000000000000000000000000000000000000000000000000000000000000000000000000000000000000000000000000000000000000000000000000000000000000000000000000000000000000000000000000000000000000000000000000000000000000000000000000000000000000000000000000000000000000000000000000000000000000000000000000000000000000000000000000000000000000000000000000000000000000000000000000000000000000000000000000000000000000000000000000000000000000000000000000000000000000000000000000000000000000000000000000000000000000000000000000000000000000000000000000000000000000000000000000000000000000000000000000000000000000000000000000000000000000000000000000000000000000000000000000000000000000000000000000000000000005300000000000000000000000000000000000000000000000000000000000000000000000000000000000000000000000000000000000000000000000000000000000000000000000000000000000053000000000000000000000000000000000000000000000000000000000000000000000000000000000000000000000000000000000000000000000000000000000000000000000000000000000000000000000000000000000000000000000000000000000000000000000000000000000000000000000000000000000000000000000000000000000000000000000000000000000000000000000000000000000000000000000000000000000000000000000000000000000000000000000000000000000000000000000000000000000000000000000000000000000000000000000000000000000000000000000000000000000000000000000000000000000000000000000000000000000000000000000000000000000000000000000000000000000000000000000000000000000000000000000000000000000000000000000000000000000000000000000000000000000000000000000000000000000000000000000000000000000000000000000000000000000000000000000000000000000000000000000000000000000000000000000000000000000000000000000000000000000000000000000000000000000000000000000000000000000000000000000000000000000000000000000000000000000000000000000000000000000000000000000000000000000000000000000000000000000000000000000000000000000000000000000000000000000000000000000000000000000000000000000000000000000000000000000000000000000000000000000000000000000000000000000000000000000000000000000000000000000000000000000000000000000000000000000000000000000000000000000000000000000000000000000000000000000000000000000000000000000000000000000000000000000000000000000000000000000000000000000000000000000000000000000000000000000000000000000000
#036350:0000000000000000000000000000000000000000000000000000000000000000000000000000000000000000000000000000000000000000000000000000000000000000000000000000000000000000000000000000000000000000000000000000000000000000000000000000000000000000000000000000000000000000000000000000000000000000000000000000000000000000000000000000000000000000000000000000000000000000000000000000000000000000000000000000000000000000530000000000000000000000005300000000000000000000000000000000000000000000000000000000000000000000000000000000000000000000000000000000000000000000000000000000000000000000000000000000000000000000000000000000000000000000000000000000000000000000
#036360:000000000000000000000000000000000000000000000000000000000000000000000000000000000000000000000000000000000000000000000000000000000000000000000000000000000000000000000000000000000000000000000000000000000000000000000000000000000000000000000000000000000000000000000000000000000000000000000000000000000000000000000000000000000000000000000000000000000000000000000000000000000000000000000000000000000000000000000000000000000000000000000000000000000000000000000000000000000000000000000000000000000000000000000000000000000000000000000000000000000000000000000000000000000000000000000000000000000000000000000000000000000000000000000000000000000000000000000000000000000000000000000000000000000000000000000000000000000000000000000000000000000000000000000000000000000000000000000000000000000000000000000000000000000000000000000000000000000000000000000000000000000000000000000000000000000000000000000000000000000000000000000000000000000000000000000000000000000000000000000000000000000000000000000000000000000000000000000000000000000000000000000000000000000000000000000000000000000000000000000000000000000000000000000000000000000000000000000000000000000000000000000000000000000000000000000000000000000000000000000000000000000000000000000000000000000000000000000000000000000000000000000000000000000000000000000000000000000000000000000000000000000000000000000000000000000000000000000000000000000000000000000000000000000000000000000000000000000000000000000000000000000000000000000000000000000000000000000000000000000000000000000000000000000000000000000000000000000000000000000000000000000000000000000000000000000000000000000000000000000000000000000000000000000000000000000000000000000000000000000000000000000000000000000000000000000000000000000000000000000000000000000000000000000000000000000000000000000000000000000000000000000000000000000000000000000000000000000000000000000000000000000000000000000000000000000000000000000000000000000000000000000000000000000000000000000000000000000000000000000000000000000000000000000000000000000000000000000000000000000000000000000000000000000000000000000000000000000000000000000000000000000000000000000000000000000000000000000000000000000000000000000000000000000000000000000000000000000000000000000000000000000000000000000000000000000000000000000000000000000000000000000000000000000000000000000000000000000000000000000000000000000000000000000000000000000000000000000000000000000000000000000000000000000000000000000000000000000000000000000000000000000000000000000000000000000000000000000000000000000000000000000000000000000000000000000000005300000000000000000000000000000000000000000000000000000000000000000000000000000000000000000000000000000000000000000000000000000000000000000000000000000000000000000000000000000000000000000000000000000000000000000000000000000000000000000000000000000000000000000000000000000000000000000000000000000000000000000000000000000000230000000000000000000000000000000000000000000000000000000000000000000000000000000000000000000000000000000000000000000000000000000000000000000000000000000000000000000000000000000000000000000000000000000000000000000000000000000000000000000000000000000000000000000000000000000000000000000000000000000000000000000000000000000000000000000000000000000000000000000000000000000000000000000000000000000000000000000000000000000000000000000000000000000000000000000000000000000000000000000000000000000000000000000000000000000000000000000000000000000000000000000000000000000000000000000000000000000000000000000000000000000000000000000000000000000000000000000000000000000000000000000000000000000000000000000000000000000000000000000000000000000000000000000000000000000000000000000000000000000000000000000000000000000000000000000000000000000000000000000000000000000000000000000000000000000000000000000000000000000000000000000000000000000000000000000000000000000000000000000000
#036371:000000000000000000000000000000000000000000000000000000000000000000000000000000000000000000000000000000000000000000000000000000000000000000000000000000000000000000000000000000000000000000000000000000000000000000000000000000000000000000000000000000000000000000000000000000000000000000000000000000000000000000000000000000000000000000000000000000000000000000000000000000000000000000000000000000000000000000000000000000000000000000000000000000000000000000000000000000000000000000000000000000000000000000000000000000000000000000000000000000000000000000000000000000000000000000000000000000000000000000000000000000000000000000000000000000000000000000000000000000000000000000000000000000000000000000000000000000000000000000000000000000000000000000000000000000000000000000000000000000000000000000000000000000000000000000000000000000000000000000000000000000000000000000000000000000000000000000000000000000000000000000000000000000000000000000000000000000000000000000000000000000000000000000000000000000000000000000000000000000000000000000000000000000000000000000000000000000000000000000000000000000000000000000000000000000000000000000000000000000000000000000000000000000000000000000000000000000000000000000000000000000000000000000000000000000000000000000000000000000000000000000000000000000000000000000000000000000000000000000000000000000000000000000000000000000000000000000000000000000000000000000000000000000000000000000000000000000000000000000000000000000000000000000000000000000000000000000000000000000000000000000000000000000000000000000000000000000000000000000000000000000000000000000000000000000000000000000000000000000000000000000000000000000000000000000000000000000000000000000000000000000000000000000000000000000000000000000000000000000000000000000000000000000000000000000000000000000000000000000000000000000000000000000000000000000000000000000000000000000000000000000000000000000000000000000000000000000000000000000000000130000000000000000000000000000000000000000000000000000000000000000000000000000000000000000000000000000000000000000000000000000000000000000000000000000000000005300000000000000000000000000000000000000000000000000000000000000000000000000000000000000000000000000000000000000000000000000000000000000000000000000000000000000000000000000000000000000000000000000000000000000000000000000000000000000000000000000000000000000000000000000000000000000000000000000000000000000000000000000000000000000000000000000000000000000000000000000000000000000000000000000000000000000000000000000000000000000000000000000000000000000000000000000000000000000000000000000000000000000000000000000000000000000000000000000000000000000000000000000000000000000000000000000000000000000000000000000000000000000000000000000000000000000000000000000000000000000000000000000000000000000000000000000000000000000000000000000000000000000000000000000000000000000000000000000000000000000000000000000000000000000000000000000000000000000000000000000000000000000000000000000000000000000000000000000000000000000000000000000000000000000000000000000000000000000000000000000000000000000000000000000000000000000000000000000000000000000000000000000000000000000000000000000000000000000000000000000000000000000000000000000000000000000000000000000000000000000000000000000000000000000000000000000000000000000000000000000000000000000000000000000000000000000000000000000000000000000000000000000000000000000000000000000000000000000000000000000000000000000000000000000000000000000000000000000000000000000000000000000000000000000000000000000000000000000000000000000000000000000000000000000000000000000000000000000000000000000000000000000000000000000000000000000000000000000000000000000000000000000000000000000000000000000000000000000000000000000000000000000000000000000000000000000000000000000000000000000000000000000000000000000000000000000000000000000000000000000000000000000000000
#036381:000000000000000000000000000000000000000000000000000000000000000000000000000000000000000000000000000000000000000000000000000000000000000000000000000000000000000000000000000000000000000000000000000000000000000000000000000000000000000000000000000000000000000000000000000000000000000000000000000000000000000000000000000000000000000000000000000000000000000000000000000000000000000000000000000000000000000000000000000000000000000000000000000000000000000000000000000000000000000000000000000000000000000000000000000000000000000000000000000000000000000000000000000000000000000000000000000000000000000000000000000000000000000000000000000000000000000000000000000000000000000000000000000000000000000000000000000000000000000000000000000000000000000000000000000000000000000000000000000000000000000000000000000000000000000000000000000000000000000000000000000000000000000000000000000000000000000000000000000000000000000000000000000000000000000000000000000000000000000000000000000000000000000000000000000000000000000000000000000000000000000000000000000000000000000000000000000000000000000000000000000000000000000000000000000000000000000000000000000000000000000000000000000000000000000000000000000000000000000000000000000000000000000000000000000000000000000000000000000000000000000000000000000000000000000000000000000000000000000000000000000000000000000000000000000000000000000000000000000000000000000000000000000000000000000000000000000000000000000000000000000000000000000000000000000000000000000000000000000000000000000000000000000000000000000000000000000000000000000000000000000000000000000000000000000000000000000000000000000000000000000000000000000000000000000000000000000000000000000000000000000000000000000000000000000000000000000000000000000000000000000000000000000000000000000000000000000000000000000000000000000000000000000000000000000000000000000000000000000000000000000000000000000000000000000000000000000000000000000000000000000000000000000000000000000000000000000000000000000000000000000000000000000000000000000000000000000000000000000000000000000000000000000000000000000000000000000053000000000000000000000000000000000000000000000000000000000000000000000000000000000000000000000000000000000000000000000000000000000000000000000000000000000000530000000000000000000000000000000000000000000000000000000000000000000000000000000000000000000000000000000000000000000000000000000000000000000000000000000000000000000000000000000000000000000000000000000000000000000000000000000000000000000000000000000000000000000000000000000000000000000000000000000000000000000000000000000000000000000000000000000000000000000000000000000000000000000000000000000000000000000000000000000000000000000000000000000000000000000000000000000000000000000000000000000000000000000000000000000000000000000000000000000000000000000000000000000000000000000000000000000000000000000000000000000000000000000000000000000000000000000000000000000000000000000000000000000000000000000000000000000000000000000000000000000000000000000000000000000000000000000000000000000000000000000000000000000000000000000000000000000000000000000000000000000000000000000000000000000000000000000000000000000000000000000000000000000000000000000000000000000000000000000000000000000000000000000000000000000000000000000000000000000000000000000000000000000000000000000000000000000000000000000000000000000000000000000000000000000000000000000000000000000000000000000000000000000000000000000000000000000000000000000000000000000000000000000000000000000000000000000000000000000000000000000000000000000000000000000000000000000000000000000000000000000000000000000000000000000000000000000000000000000000000000000000000000000000000000000000000000000000000000000000000000000000000000000000000000000000000000000000000000000000000000000000000000000000000000000000000000000000000000000000000000000000000000000000000000000000000000
#036391:000000000000000000000000000000000000000000000000000000000000000000000000000000000000000000000000000000000000000000000000000000000000000000000000000000000000000000000000000000000000000000000000000000000000000000000000000000000000000000000000000000000000000000000000000000000000000000000000000000000000000000000000000000000000000000000000000000000000000000000000000000000000000000000000000000000000000000000000000000000000000000000000000000000000000000000000000000000000000000000000000000000000000000000000000000000000000000000000000000000000000000000000000000000000000000000000000000000000000000000000000000000000000000000000000000000000000000000000000000000000000000000000000000000000000000000000000000000000000000000000000000000000000000000000000000000000000000000000000000000000000000000000000000000000000000000000000000000000000000000000000000000000000000000000000000000000000000000000000000000000000000000000000000000000000000000000000000000000000000000000000000000000000000000000000000000000000000000000000000000000000000000000000000000000000000000000000000000000000000000000000000000000000000000000000000000000000000000000000000000000000000000000000000000000000000000000000000000000000000000000000000000000000000000000000000000000000000000000000000000000000000000000000000000000000000000000000000000000000000000000000000000000000000000000000000000000000000000000000000000000000000000000000000000000000000000000000000000000000000000000000000000000000000000000000000000000000000000000000000000000000000000000000000000000000000000000000000000000000000000000000000000000000000000000000000000000000000000000000000000000000000000000000000000000000000000000000000000000000000000000000000000000000000000000000000000000000000000000000000000000000000000000000000000000000000000000000000000000000000000000000000000000000000000000000000000000000000000000000000000000000000000000000000000000000000000000000000000000000000000000000000000000000000000000000000000000000000000000000000000000000000000000000000000000000000000000000000000000000000000000000000000000000000000000000000000000000000000000000000000000000000000000000000000000000000000000000000000000000000000000000000000000000000000000000000000000000000000000000000000000000000000000000000005300000000000000000000000000000000000000000000000000000000000000000000000000000000000000000000000000000000000000000000000000000000000000000000000000000000000053000000000000000000000000000000000000000000000000000000000000000000000000000000000000000000000000000000000000000000000000000000000000000000000000000000000000000000000000000000000000000000000000000000000000000000000000000000000000000000000000000000000000000000000000000000000000000000000000000000000000000000000000000000000000000000000000000000000000000000000000000000000000000000000000000000000000000000000000000000000000000000000000000000000000000000000000000000000000000000000000000000000000000000000000000000000000000000000000000000000000000000000000000000000000000000000000000000000000000000000000000000000000000000000000000000000000000000000000000000000000000000000000000000000000000000000000000000000000000000000000000000000000000000000000000000000000000000000000000000000000000000000000000000000000000000000000000000000000000000000000000000000000000000000000000000000000000000000000000000000000000000000000000000000000000000000000000000000000000000000000000000000000000000000000000000000000000000000000000000000000000000000000000000000000000000000000000000000000000000000000000000000000000000000000000000000000000000000000000000000000000000000000000000000000000000000000000000000000000000000000000000000000000000000000000000000000000000000000000000000000000000000000000000000000000000000000000000000000000000000000000000000000000000000000000000000000000000000000000000000000000000000000000000000000000000000000000000000000000000000000
#0363a1:0000000000000000000000000000000000000000000000000000000000000000000000000000000000000000000000000000000000000000000000000000000000000000000000000000000000000000000000000000000000000000000000000000000000000000000000000000000000000000000000000000000000000000000000000000000000000000000000000000000000000000000000000000000000000000000000000000000000000000000000000000000000000000000000000000000000000000530000000000000000000000005300000000000000000000000000000000000000000000000000000000000000000000000000000000000000000000000000000000000000000000000000000000000000000000000000000000000000000000000000000000000000000000000000000000000000000000
#0363b1:000000000000000000000000000000000000000000000000000000000000000000000000000000000000000000000000000000000000000000000000000000000000000000000000000000000000000000000000000000000000000000000000000000000000000000000000000000000000000000000000000000000000000000000000000000000000000000000000000000000000000000000000000000000000000000000000000000000000000000000000000000000000000000000000000000000000000000000000000000000000000000000000000000000000000000000000000000000000000000000000000000000000000000000000000000000000000000000000000000000000000000000000000000000000000000000000000000000000000000000000000000000000000000000000000000000000000000000000000000000000000000000000000000000000000000000000000000000000000000000000000000000000000000000000000000000000000000000000000000000000000000000000000000000000000000000000000000000000000000000000000000000000000000000000000000000000000000000000000000000000000000000000000000000000000000000000000000000000000000000000000000000000000000000000000000000000000000000000000000000000000000000000000000000000000000000000000000000000000000000000000000000000000000000000000000000000000000000000000000000000000000000000000000000000000000000000000000000000000000000000000000000000000000000000000000000000000000000000000000000000000000000000000000000000000000000000000000000000000000000000000000000000000000000000000000000000000000000000000000000000000000000000000000000000000000000000000000000000000000000000000000000000000000000000000000000000000000000000000000000000000000000000000000000000000000000000000000000000000000000000000000000000000000000000000000000000000000000000000000000000000000000000000000000000000000000000000000000000000000000000000000000000000000000000000000000000000000000000000000000000000000000000000000000000000000000000000000000000000000000000000000000000000000000000000000000000000000000000000000000000000000000000000000000000000000000000000000000000000000000000000000000000000000000000000000000000000000000000000000000000000000000000000000000000000000000000000000000000000000000000000000000000000000000000000000000000000000000000000000000000000000000000000000000000000000000000000000000000000000000000000000000000000000000000000000000000000000000000000000000000000000000000000000000000000000000000000000000000000000000000000000000000000000000000000000000000000000000000000000000000000000000000000000000000000000000000000000000000000000000000000000000000000000000000000000000000000000000000000000000000000000000000000000000000000000000000000000000000000000000000000000000000000000000000000000000000005300000000000000000000000000000000000000000000000000000000000000000000000000000000000000000000000000000000000000000000000000000000000000000000000000000000000000000000000000000000000000000000000000000000000000000000000000000000000000000000000000000000000000000000000000000000000000000000000000000000000000000000000000000000230000000000000000000000000000000000000000000000000000000000000000000000000000000000000000000000000000000000000000000000000000000000000000000000000000000000000000000000000000000000000000000000000000000000000000000000000000000000000000000000000000000000000000000000000000000000000000000000000000000000000000000000000000000000000000000000000000000000000000000000000000000000000000000000000000000000000000000000000000000000000000000000000000000000000000000000000000000000000000000000000000000000000000000000000000000000000000000000000000000000000000000000000000000000000000000000000000000000000000000000000000000000000000000000000000000000000000000000000000000000000000000000000000000000000000000000000000000000000000000000000000000000000000000000000000000000000000000000000000000000000000000000000000000000000000000000000000000000000000000000000000000000000000000000000000000000000000000000000000000000000000000000000000000000000000000000000000000000000000000000
#037321:13230000
#037361:0053000000000000
#037370:13230000
#0373b0:0053000000000000
#037320:00000000000000130000230000000000
#037350:0000000000000000000000000000000000530000000000000000000000000000
#037371:00000000000000130000230000000000
#0373a1:0000000000000000000000000000000000530000000000000000000000000000
#037371:0000000000001323
#037320:0000000000001323
#0383b0:13230000
#038370:0053000000000000
#038361:13230000
#038321:0053000000000000
#038351:0000000000000013
#039351:330000000053000000000000530000000000000000000000
#039361:000000000000000000000000000000000000000000000000000000000000000000000000000000000000000000000000000000000000000000000000000000000000000000000000000000000000000000000000000000000000000000000000000000000000000000000000000000000000000000000000000000000000000000000000000000000000000000000000000000000000000000000000000000000000000000000000000000000000000000000000000000000000000000000000000000000000000000000000000000000000000000000000000000000000000000000000000000000000000000000000000000000000000000000000000000000000000000000000000000000000000000000000000000000000000000000000000000000000000000000000000000000000000000000000000000000000000000000000000000000000000000000000000000000000000000000000000000000000000000000000000000000000000000000000000000000000000000000000000000000000000000000000000000000051000000000000000000000000000000000000000000000000000000000000000000000000000000000000000000000000000000000000000000000000000000000000000000000000000000000000000000000000000000000000000000000000000000000000000000000000000000000000000000000000000000000000000000000000000000000000000000000000000000000000000000000000000000000000000000000000000000000000000000000000000000000000000000000000000000000000000000000000000000000000000000000000000000000000000000000000000000000000000000000000000000000000000000000000000000000000000000000000000000000000000000000000000051000000000000000000000000000000000000000000000000000000000000000000000000000000000000000000000000000000000000000000000000000000000000000000000000000000000000000000000000000000000000000000000000000000000000000000000000000000000000000000000000000000000000000000000000000000000000000000000000000000000000000000000000000000000000000000000000000000000000000000000000000000000000000000000000000000000000000000000000000000000000000000000000000000000000000000000000000000000000000000000000000000000000000000000000000000000000000000000000000000000000000000000000000051000000000000000000000000000000000000000000000000000000000000000000000000000000000000000000000000000000000000000000000000000000000000000000000000000000000000000000000000000000000000000000000000000000000000000000000000000000000000000000000000000000000000000000000000000000000000000000000000000000000000000000000000000000000000000000000000000000000000000000000000000000000000000000000000000000000000000000000000000000000000000000000000000000000000000000000000000000000000000000000000000000000000000000000000000000000000000000000000000000000000000000000000000000000000000000000000000000000000000000000000000000000000000000000000000000000000000000000000000000000000000000000000000000000000000000000000000000000000000000000000000000000000000000000000000000000000000000000000000000000000000000000000000000000000000000000000000000000000000000000000000000000000000000000000000000000000000000000000000000000000000000000000000000000000000000000000000000000000000000000000000000000000000000000000000000000000000000000000000000000000000000000000000000000000000000000000000000000000000000000000000000000000000000000000000000000000000000000000000000000000000000000000000000000000000000000000000000000000000000000000000000000000000000000000000000000000000000000000000000000000000000000000000000000000000000000000000000000000000000000000000000000000000000000000000000000000000000000000000000000000000000000000000000000000000000000000000000000000000000000000000000000000000000000000000000000000000000000000000000000000000000000000000000000000000000000000000000000000000000000000000000000000000000000000000000000000000000000000000000000000000000000000000000000000000000000000000000000000000000000000000000000000000000000000000000000000000000000000000000000000000000000000000000000000000000000000000000000000000000000000000000000000000000000000000000000000000000000000000000000000000000000000000000000000000000000000000000000000000000000000
#039331:000000000000000000000000000000000000000000000000000000570000000000000000000000000057000000000000000000000000000000000000000000000000000000000000000000000000000000000000000000000000000000000000
#040351:33332300
#040321:0053005300000000
#041321:14250000
#041351:0053000000000000
#0413a0:14
#041380:0053000000000000
#041390:00250000
#042350:0000000000130000
#042320:00000023
#043360:000000000000000000130023000000000000000000000000
#0433b1:000000000000000000130023000000000000000000000000
#044371:000000000000000000130023000000000000000000000000
#044320:000000000000000000130023000000000000000000000000
#045320:14250000
#045350:0053000000000000
#0453a1:14
#045381:0053000000000000
#045391:00250000
#046321:000000000000000000130023000000000000000000000000
#046370:000000000000000000130023000000000000000000000000
#0473b0:000013000023000000000000000000000000000000000000
#047361:000000130023000000000000000000000000000000000000
#047321:00001323
#047361:0000000000330000
#0473b0:00000013
#047370:0000000000000033
#0483b0:23
#048321:13230000
#048361:0033000000000000
#0483b0:00132300
#048370:0000003300000000
#048321:00001323
#048361:0000000000330000
#0483b0:00000013
#048370:0000000000000033
#0493b0:23
#0503a0:000000000000000000000000000000000000135353535353
#050390:000000000000000000000000000000000000000000000000000000000000000000000000005300000053000000530000
#0503b0:000000000000000000000000000000000000000000000000000000000000000000000000000000530000005300000053
#0513a0:23
#051321:130000000023000000000000000000000000000000000000
#051361:000000000053000000000000000000000000000000000000000000000000000000000000000000000000000000000000
#052321:00000013
#052361:0000000000000053
#053321:23
