This file was generated by Ched 2.7.0.0.
#TITLE ""
#ARTIST ""
#DESIGNER ""
#DIFFICULTY 0
#PLAYLEVEL
#SONGID ""
#WAVE ""
#WAVEOFFSET 0
#JACKET ""
#REQUEST "ticks_per_beat 480"
#00002: 4
#BPM01: 125
#00008: 01
#TIL00: ""
#VOLUME: ""
#HISPEED 00
#MEASUREHS 00
#00115:13130000
#0011b:00130000
#00118:00001313
#00112:00000013
#00215:13131300
#0021b:00131300
#00418:13131300
#00412:00131300
#00415:00000023
#0041b:00000023
#00512:13
#00518:00130000
#00515:0000001300000000
#0051b:13
#00510:41
#00612:13
#0061b:13
#00615:00130000
#00618:0000001300000000
#0071b:13131300
#00715:0013001300000000
#00718:0000000000330000
#00812:13131300
#00818:0013001300000000
#00815:000000000000003300000000
#00918:00130000
#00912:0000001300000000
#0091b:13
#00915:0013000000000000
#01012:13
#01015:00130000
#0101b:0000001300000000
#01018:0013000000000000
#0111b:13
#01115:000000130000000000000013000033330000000000000000
#01118:000000000000000000000013000000000000000000000000
#01212:13
#01218:000000130000000000000013000033330000000000000000
#01215:000000000000000000000013000000000000000000000000
#01412:13
#01418:13001313
#01415:0000000000130000
#01612:0000000000001414
#0161a:0000000000001414
#01618:2222
#01616:00220000
#01718:0000000000001313
#01715:000000000013
#01712:24
#0171a:24
#01710:41
#01815:13
#01818:0000001300000000
#01912:1300330000130013
#01918:1300330000130013
#01915:0033000000001300
#0191b:0033000000001300
#02012:0033000000001414
#0201a:0000000000001414
#0201b:23330000
#02015:23330000
#02018:0033000000000000
#0211b:0000000000000013
#02112:24
#0211a:24
#02110:41
#02215:13130000
#0221b:0013000000000000
#02212:0000000000230023
#02218:00000023
#02318:2300001300130013
#02312:0023000013001300
#0241b:0013001300000013
#02415:13130013
#02418:0000000000130000
#02412:0013
#02512:13000013
#02518:13000013
#0251b:0013
#0261b:00131300
#02615:00131300
#02612:13
#00318:13130000
#00312:00130000
#00315:00001313
#0031b:00000013
#0271b:13000013
#02712:00131300
#02715:00000013
#02718:00130000
#02916:00140000
#0291a:0014
#02912:00000016
#02910:41
#03315:00130000
#0331b:000000000000000000130000000000000000000000003333
#03312:23001313
#03318:0013000000130013
#03415:0013000000130000
#03418:00130000
#03412:0000001300000000
#0341b:23001313
#03512:1313
#0351b:0013000000130000
#03518:00130013
#03515:0000001300000013
#0351f:11
#03612:0013
#0361b:0013
#0381b:00130000
#03815:0000130000130000
#03818:13001313
#03812:13
#04012:0000000000001414
#0401a:0000000022001414
#04014:22
#04017:00220000
#04115:0000000000001313
#04118:000000140000000000000000000000000000000013000000
#04114:0014000000000000
#0411a:24
#04112:24
#0411f:21
#04218:13
#0421b:0013000000000000
#04215:0000001300000000
#04212:0013
#04210:41
#0431b:0000000000130013
#04315:0000000000130013
#04318:00000013
#04312:00000013
#0441a:0000000000001414
#04412:2300000000001414
#04418:23
#04512:2400000000000013
#04514:0014000000000000
#04518:0014000000000000
#0451a:24
#04615:1300000000000023
#04618:0013000000002300
#0461b:0000130000230000
#04715:0000001300001300
#0471b:0013
#04712:2313
#04718:0023000000130013
#02816:0000000000140000
#0281a:141400240000
#02812:000000140014000000000000
#02814:002400000000000000000000
#02818:002400
#05018:0013
#05015:1313
#05012:0000130000130000
#0501b:0000130000130000
#05118:00000013
#05112:0013
#05115:0000000000000013
#0511b:0013
#05114:23
#05119:23
#04812:1313
#0481b:1300000013000013
#04818:0000130000130000
#04815:0013001300001300
#0491b:1313
#04915:13000013
#04912:000000000013000000000000000000000000000000000000130000000000000000000000000000000000000000000000
#04918:000000000013000000000000000000000000000000000000000000000000000000000000000000000000130000000000
#04910:41
#03215:0013001300000013
#03218:13131300
#03212:000000000000000000000000000000000000000000003333
#0321b:000000000000000000000000000033330000000000000000
#00012:0024
#0001a:0024
#0131b:230000000000000000000023000000000000000000000000
#01315:230000000000000000000023000000000000000000000000
#0301a:24
#03016:00240000
#03012:0024
#03018:00000026
#03718:000000000000000000000023000000000000000000000000
#03712:000000000000000000000023000000000000000000000000
#05212:0023002323000000
#0521b:23232300
#05313:22
#0531b:22
#03115:23232300
#03118:0023002300000000
#03112:000000000000000000000000000033330000000000000000
#03913:22
#0391b:22
#0151b:22
#01513:22
#00052:00000014
#0005a:00000014
#0045b:00000013
#00455:00000013
#00458:0063
#00452:0063
#00252:00000013
#00258:00000013
#00255:0053
#0025b:0053
#0055b:000000000000000000000000000000000013000000000000
#00652:000000000000000000000000000000000013000000000000
#0075b:0053
#00758:000000000000000000000000000000000013000000000000
#00852:0063
#00855:000000000000000000000000000000000013000000000000
#0095b:000000000000000000000000000000000013000000000000
#01052:000000000000000000000000000000000013000000000000
#01152:00000013
#0115b:00000013
#01155:000000000000000000000053000000000000000000000000
#01158:000000000000000000000053000000000000000000000000
#01255:000000000000000000000063000000000000000000000000
#01258:000000000000000000000063000000000000000000000000
#01252:00000013
#0125b:00000013
#01355:530000000000000000000053000000000000000000000000
#0135b:530000000000000000000053000000000000000000000000
#01352:00130013
#01358:00130013
#01455:00130000
#0145b:00130000
#01452:53
#01458:53
#0175a:00140000
#01752:00140000
#01852:00130000
#0185b:0000000000130000
#01855:63
#01858:0000006300000000
#0195b:000000000000000000000013000000000000000000000000
#01955:000000000000000000000013000000000000000000000000
#01958:53
#01952:53
#02052:000000000000000000000013000000000000000000000000
#02058:000000000000000000000013000000000000000000000000
#02055:53
#0205b:53
#0215a:00140000
#02152:00140000
#0225b:000000000000000000000013000000000000000000000000
#02352:000000000013000000000000000000000000000000000000
#02555:000000000013000000000000000000000000000000000000
#0255b:000000000013000000000000000000000000000000000000
#02552:53
#02558:53
#02952:14
#02956:00140000
#0295a:0014
#0305a:14
#03056:00140000
#03052:0014
#03152:000000000000000000000000000000000013000000000000
#03155:0063
#03352:13000013
#03358:0000000000000053
#0345b:13000013
#03652:0053
#0365b:0053
#03658:00000013
#03655:00000013
#03758:000000000000000000000023000000000000000000000000
#03752:000000000000000000000023000000000000000000000000
#04258:53130000
#0425b:0023000000000000
#04255:0000006300130000
#04252:0023
#04352:000000000000000000000013000000000000000000000000
#04358:000000000000000000000013000000000000000000000000
#0445b:000000000000000000000013000000000000000000000000
#04455:000000000000000000000013000000000000000000000000
#04552:54140000
#0455a:54140000
#04554:0024000000000000
#04558:0024000000000000
#04655:000000000000000000000013000000000000000000000000
#04758:000000000013000000000000000000000000000000000000
#05058:00006313
#05055:00006313
#05052:0000000000230000
#0505b:0000000000230000
#05258:00000013
#0525b:0053
#05252:0063
#05255:00000013
#05154:000000000013000000000000000000000000000000000000
#05159:000000000013000000000000000000000000000000000000
#04154:0024000000000000
#04158:0024000000000000
#0415a:54140000
#04152:54140000
#0495b:630000000013000000000000000000000000000000000000
#04955:630000000013000000000000000000000000000000000000
#04952:000000000023000000000000000000000000000000000000000000000000000000000000000000000000000000000000
#04958:000000000023000000000000000000000000000000000000000000000000000000000000000000000000000000000000
#0325b:000000000000000000000000000000000013000000000000
#03255:0000000000000063
#03258:0063
#02655:0053
#0265b:0053
#02652:00000013
#02658:00000013
#0003a0:00001424
#000321:00001424
#002351:0013
#002321:00000023
#0023b0:0013
#002380:00000023
#004380:0013
#0043b0:00000023
#004321:0013
#004351:00000023
#0053b1:000000000000000000000000130033330023000000000000
#006321:000000000000000000000000130033330023000000000000
#0073b1:0013
#007381:000000000000000000000000000000330023000000000000
#008321:0013
#008351:000000000000000000000000000033000023000000000000
#0093b1:000000000000000000000000130033330023000000000000
#010321:000000000000000000000000130033330023000000000000
#011381:000000000000130033000033000000000000000000000000
#0113b1:00000023
#011350:000000000000000000000013000033330000000000000000
#011320:00000023
#012350:000000000000130033000033000000000000000000000000
#012320:00000023
#012381:000000000000000000000013000033330000000000000000
#0123b1:00000023
#0133b1:13
#013381:00230000
#013350:13
#013320:00230000
#013350:000000000000000000000013000000000000000000000000
#013320:00000023
#0133b1:000000000000000000000013000000000000000000000000
#013381:00000023
#014321:13
#014351:00230000
#014380:13
#0143b0:00230000
#0173a0:14240000
#017321:14240000
#018351:13
#018321:00230000
#018381:0000001300000000
#0183b1:0000000000230000
#019381:13330000
#0193b1:000000330000000000330023000000000000000000000000
#019320:13330000
#019350:000000330000000000330023000000000000000000000000
#020350:13330000
#020320:000000330000000000330023000000000000000000000000
#0203b1:13330000
#020381:000000330000000000330023000000000000000000000000
#0213a1:14240000
#021320:14240000
#0223b0:000000000000000000130023000000000000000000000000
#023320:000000130023000000000000000000000000000000000000
#025380:13
#0253b0:000000000023000000000000000000000000000000000000
#025321:13
#025351:000000000023000000000000000000000000000000000000
#026351:0013
#026321:00000023
#0263b0:0013
#026380:00000023
#028320:00000014
#029320:24
#031350:0013
#031320:000000000000000000000000000033330023000000000000
#032380:0013
#0323b0:000000000000000000000000000033330023000000000000
#032350:0000000000000013
#032320:000000000000000000000000000000000000000000003333
#033320:23
#033380:0000000000000013
#0333b0:000000000000000000000000000000000000000000003333
#0343b0:23
#036320:1333
#036350:00000023
#0363b1:1333
#036381:00000023
#0373b1:13
#037381:00230000
#037350:13
#037320:00230000
#037380:000000000000000000000013000000000000000000000000
#0373b0:00000023
#037321:000000000000000000000013000000000000000000000000
#037351:00000023
#041321:14240000
#041341:0054000000000000
#0413a0:14240000
#041380:0054000000000000
#042380:13230000
#0423b0:0053000000000000
#042350:0000001300230000
#042320:0053
#043350:13330000
#043320:000000330000000000330023000000000000000000000000
#0433b1:13330000
#043381:000000330000000000330023000000000000000000000000
#044381:13330000
#0443b1:000000330000000000330023000000000000000000000000
#044320:13330000
#044350:000000330000000000330023000000000000000000000000
#045320:14240000
#045340:0054000000000000
#0453a1:14240000
#045381:0054000000000000
#046351:000000000000000000130023000000000000000000000000
#047381:000000130023000000000000000000000000000000000000
#049351:130000000023000000000000000000000000000000000000
#049321:000000000053000000000000000000000000000000000000000000000000000000000000000000000000000000000000
#0493b0:130000000023000000000000000000000000000000000000
#049380:000000000053000000000000000000000000000000000000000000000000000000000000000000000000000000000000
#050380:00001323
#0503b0:0000000000530000
#050351:00001323
#050321:0000000000530000
#051341:130000000023000000000000000000000000000000000000
#051390:130000000023000000000000000000000000000000000000
#0523b0:0013
#052380:00000023
#052321:0013
#052351:00000023
