This file was generated by Ched 2.7.0.0.
#TITLE ""
#ARTIST ""
#DESIGNER ""
#DIFFICULTY 0
#PLAYLEVEL
#SONGID ""
#WAVE ""
#WAVEOFFSET 0
#JACKET ""
#REQUEST "ticks_per_beat 480"
#00002: 4
#BPM01: 125
#00008: 01
#TIL00: ""
#VOLUME: ""
#HISPEED 00
#MEASUREHS 00
#0011a:0014
#00114:24
#00512:14
#00518:0014
#0051a:14
#00510:41
#00614:1414
#0061a:00140000
#0071a:14
#00714:0014
#00818:1414
#00812:00140000
#00912:14
#0091a:14
#00914:0014
#01018:1414
#01012:00140000
#01112:14
#01118:0014
#01214:1414
#0121a:00140000
#00318:14
#00312:0014
#01818:14
#01814:00140000
#0181a:0014
#01812:00000014
#01714:00000014
#0171a:24
#01710:41
#01914:00000014
#02514:0014
#02518:00000014
#0251a:24
#02612:14
#02618:0014
#02614:00000014
#0271a:14
#02714:0014
#02718:00000014
#02812:14140000
#0281a:00001414
#02914:14141400
#02910:41
#03112:14
#03114:0014
#03118:00140000
#0311a:00000014
#0201a:00000014
#03212:14
#03218:00140000
#03214:0014
#0321a:00000014
#03318:0014
#03314:00000014
#03312:14
#0341a:14
#03414:0014
#03418:00000014
#03512:14140000
#0351a:0014
#03516:00000014
#0351f:11
#0371a:14
#03712:14
#03718:0014
#03714:00000014
#0381a:14
#03814:00140000
#03818:0014
#03812:00000014
#04212:00140000
#0421a:0014
#04218:14
#04214:00000014
#04210:41
#04114:00000014
#0411a:24
#0411f:21
#0461a:00000014
#04618:14140000
#04614:0014000000000000
#04612:0014
#04914:0014
#04918:24000014
#04912:24
#04910:41
#05012:14
#05014:0014
#05018:00000014
#0501a:00140000
#05118:0014
#05114:00000014
#05112:24
#03918:00140000
#0391a:24
#0401a:00000014
#04318:14140000
#04314:0014000000000000
#04312:0014
#0431a:00000014
#04414:14140000
#04418:0014000000000000
#0441a:0014
#04412:00000014
#0531a:14
#02214:00000014
#02112:24
#02110:41
#03018:24242400
#01518:24
#0451a:24
#0521a:24
#05216:00240024
#05212:0024
#03612:24
#0175a:00140000
#02152:00140000
#0255a:14
#0415a:00140000
#03958:00240000
#0395a:54
#0455a:00140000
#04958:14
#04952:14
#01058:0014
#01254:0014
#02954:0014
#03058:0014
#03352:14
#0345a:14
#05152:14
#002340:1424
#004380:1424
#013380:14
#0133a0:0024
#014340:14
#014320:0024
#015380:1424
#016340:14342400
#0173a0:14240000
#019380:1424
#020340:1424
#021320:14240000
#022380:1424
#023380:1434
#023390:00000034
#0243a0:34
#024390:00340034
#024380:0034
#0253a0:24
#0393a0:1424
#039380:00540000
#040320:1424
#040340:00340000
#0413a0:14240000
#0453a0:14240000
#0473a0:1434
#047390:00000034
#048380:34
#048390:00340034
#0483a0:0034
#049380:24
#047341:1434
#047331:00000034
#048321:34
#048331:00340034
#048341:0034
#049321:24
