This file was generated by Ched 2.7.0.0.
#TITLE ""
#ARTIST ""
#DESIGNER ""
#DIFFICULTY 0
#PLAYLEVEL
#SONGID ""
#WAVE ""
#WAVEOFFSET 0
#JACKET ""
#REQUEST "ticks_per_beat 480"
#00002: 4
#BPM01: 174
#00008: 01
#TIL00: ""
#VOLUME: ""
#HISPEED 00
#MEASUREHS 00
#00518:14
#00510:41
#00614:14
#0071a:14
#00812:14
#01218:14
#01314:14
#0141a:14
#01512:14
#01510:41
#01618:14
#01714:14
#0181a:14
#02018:14
#02114:14
#0221a:14
#03418:14
#03514:14
#03618:14
#03712:14
#0381a:14
#03912:14
#0401a:14
#04318:2616
#0431f:21
#04512:1616
#04718:1616
#04812:1616
#04918:16
#04912:0016
#05112:2616
#05318:1616
#05712:1616
#05818:1616
#05918:0016
#05912:26
#06112:0016
#06118:16
#06312:1616
#06418:1616
#06512:16
#06518:0016
#06712:0016
#06718:26
#06710:41
#06918:0016
#06912:16
#07118:1616
#07212:1616
#07318:16
#07312:0016
#07418:16
#07412:0016
#07612:14
#07718:14
#0331f:11
#03314:24
#0011a:24
#01112:24
#01912:24
#02313:24
#02419:24
#02512:24
#02510:41
#0751a:24
#04410:41
#05510:41
#0013a0:14
#0023a0:24
#003320:14
#004320:24
#009380:14
#010380:0024
#025320:14
#026320:24
#0273a0:14
#0283a0:24
#029340:14
#030340:24
#031380:14
#032380:24
#041340:14
#042340:24
#044380:1626
#046320:1626
#050380:1626
#052320:1626
#054380:1626
#055320:1626
#056380:1626
#060320:1626
#062380:1626
#066320:1626
#068380:1626
#070320:1626
#078340:14342400
