This file was generated by Ched 2.7.0.0.
#TITLE ""
#ARTIST ""
#DESIGNER ""
#DIFFICULTY 0
#PLAYLEVEL
#SONGID ""
#WAVE ""
#WAVEOFFSET 0
#JACKET ""
#REQUEST "ticks_per_beat 480"
#00002: 4
#BPM01: 174
#00008: 01
#TIL00: ""
#VOLUME: ""
#HISPEED 00
#MEASUREHS 00
#0331f:11
#03319:0013
#0331a:00130000
#0331b:13
#03315:23232323
#06514:0000000000000013
#06512:13130013
#06517:0013000000001300
#0651b:1313
#06516:0000001300000000
#06519:0000000000130000
#06616:23000000001300000000000000000000
#06618:0013
#06612:0013000000000000
#0661b:13
#06615:00000013
#06617:0023000000000000
#07612:0013000000130053
#07615:0000001300000000
#07614:00000000000000000000005300530000
#07616:00000053
#06812:0000001300000000
#06817:00130000
#0681b:0013000000000000
#06816:13
#06818:0000000000130013
#06815:00000013
#0671b:2300000013000013
#06712:0000000000001313
#06717:00130013
#06714:0000000000130000
#06716:1313
#06719:0000001300000000
#06710:41
#0601b:0000001300000000
#06016:00130000
#06012:0013000000000000
#06017:13
#06015:0000000000130013
#06018:00000013
#05912:2300000013000013
#0591b:0000000000001313
#05916:00130013
#05919:0000000000130000
#05917:1313
#05914:0000001300000000
#0521b:0000001300000000
#05216:00130000
#05212:0013000000000000
#05217:13
#05215:0000000000130013
#05218:00000013
#05112:2300130000001313
#0511b:1300000013000013
#05117:00000013
#05119:0000000000130000
#05116:0013
#05114:0000001300000000
#04816:0000001300000000
#0481b:0000001300001300
#04812:0000000000130000
#04814:00130000
#04817:0013000000000000
#03612:1313
#03615:00130000
#03618:23232323
#0351b:1313
#03518:00130000
#03515:23232323
#03414:0013
#03413:00130000
#03412:13
#03418:23232323
#0221b:13130013
#02218:0013
#02215:0000000000000013
#02212:0013000000130000
#02216:00130000
#02217:0013000000000000
#0181b:13130013
#01818:0013
#01815:0000000000000013
#01812:0013000000130000
#01816:00130000
#01817:0013000000000000
#0141b:13130013
#01418:0013
#01415:0000000000000013
#01412:0013000000130000
#01416:00130000
#01417:0013000000000000
#0321a:0012000000001200
#03214:00000012
#03212:0000001212000000
#03114:0000120000000012
#0311a:00120012
#03118:12
#03112:1200000000120000
#0311c:0012
#0301a:00000012
#03016:00120000
#03014:0000000000120000
#0301c:0000001200000000
#03018:0012000000000000
#02912:0000000000000012
#0291a:00000012
#02916:0012
#02918:00120000
#02914:12
#02416:1313
#02417:0000130000130000
#02412:0000230000130000
#02414:0000001300000000
#02419:0013000000000000
#0241b:2323
#02116:0000001300001300
#02112:1300130000130000
#02112:0000000000130000
#02117:0000000013000013
#0211b:5300001300000000
#0211b:0000001300000000
#02118:00000013000000000000000000000000
#01917:0000001300001300
#0191b:1300130000130000
#0191b:0000000000130000
#01916:0000000013000013
#01912:2300001300000000
#01912:0000001300000000
#01915:00000013000000000000000000000000
#02017:00130000
#02012:13131300
#02016:0013000000000000
#0201b:0013000000002300
#02018:0000000000230000
#01716:0000001300001300
#01712:1300130000130000
#01712:0000000000130000
#01717:0000000013000013
#0171b:0000001300000000
#0171b:0000001300000000
#01718:00000013000000000000000000000000
#01517:0000001300001300
#0151b:1300130000130000
#0151b:0000000000130000
#01516:0000000013000013
#01512:1300001300000000
#01512:0000001300000000
#01515:00000013000000000000000000000000
#01510:41
#01316:0000001300001300
#01312:1300130000130000
#01312:0000000000130000
#01317:0000000013000013
#0131b:5300001300000000
#0131b:0000001300000000
#01318:00000013000000000000000000000000
#01618:00000000000000000012000000000000
#01613:0000000000120000
#01619:00000000000000000000001200000000
#01614:00000012
#0161a:00000000000000000000000000120000
#01615:0000000000000012
#0161b:00001300000000000000000000000012
#01612:13131200
#01617:00130000
#01616:0013000000000000
#01117:0000001300001300
#0111b:1300130000130000
#0111b:0000000000130000
#01116:0000000013000013
#01112:2300001300000000
#01112:0000001300000000
#01115:00000013000000000000000000000000
#00815:00130013001300130013001300130013
#00818:2313231323132313
#00712:13130013
#0071b:1313
#00616:0000001413000014
#00617:13
#00512:0013
#00516:0000001400000014
#0051b:13
#00510:41
#0041b:0013
#00412:0000001300000013
#00418:00130013
#00415:0013000000130000
#00312:1313
#0031b:0000000000000013
#00315:00130013
#00318:0013001300130000
#00215:0000001300001300
#00218:0013000000130013
#00112:1300000000130000
#00115:0000001300000013
#00118:00130013
#0011b:2313
#0381b:1313
#03815:0013001300130013
#03818:00230023
#03812:2323
#03712:1313
#03718:0013001300130013
#03715:00230023
#0371b:2323
#07718:00000016000000001300000000001300
#07712:1600001600000000
#0771b:00000013
#07715:0000000000130023
#05612:0000000000130000
#05616:0000001413000014
#0561b:0013000000000000
#05617:13
#05516:0000001400130014
#05512:0013
#05517:0013000000000000
#0551b:13
#05510:41
#05817:0013000013000000
#0581b:13000013
#05815:00130000
#05816:00000013
#05812:0013
#05712:1300130000000013
#05715:00000013
#05716:0000001300000000
#0571b:1300000000130000
#05717:0013000013000000
#07416:0013000013000000
#07412:13000013
#07417:00000013
#0741b:0013
#07418:00130000
#0731b:1300130000000013
#07318:00000013
#07317:0000001300000000
#07312:1300000000130000
#07316:0013000013000000
#0721b:0000000000130000
#07217:0013
#07212:0013000000000000
#07216:1300001400000014
#07117:0000000000130000
#0711b:0013
#07116:0013001400000014
#07112:13
#07016:0000000000140014
#0701b:0013000000001300
#07012:0013
#07017:0000001300000000
#07019:00130000
#06916:0014001400140014
#06912:23132313
#0691b:13231323
#0641b:0000001300000000
#06415:0013001300001300
#06418:0000130000130000
#0631b:1313
#06315:0000001313001300
#06318:0013130000130013
#06312:1300130000000013
#06216:0000001300140014
#06212:0013000000001300
#0621b:0013
#06214:00130000
#06116:0014001400140014
#0611b:23132313
#06112:13231323
#05416:0000001300140014
#05412:0013000000001300
#0541b:0013
#05414:00130000
#05316:0014001400140014
#0531b:23132313
#05312:13231323
#04912:0013000013000013
#04918:13130000
#04916:00000013
#0491b:0000001300131300
#04915:13
#04716:0000130000000013
#0471b:0000000000000013
#04718:00000013
#04715:0000000000130000
#04717:1313
#04712:13
#04412:0000001300000000
#04418:0000000000130013
#04415:00000013
#04417:00130000
#0441b:0013000000000000
#04416:13
#04410:41
#0431b:2300130000001313
#04312:1300000013000013
#04316:00000013
#04314:0000000000130000
#04317:0013
#04319:0000001300000000
#0431f:21
#0281a:0000001200000012
#02812:00000012
#02818:0000000000120000
#02814:0012
#02816:00120000
#0281c:0012000000000000
#02716:0000001200000012
#02718:00120012
#02714:0012000000120000
#0271a:1212
#02616:0000000000120012
#02618:00000012
#02615:0012000000000000
#02512:2300000000000012
#02518:00000012
#02514:0000000000120000
#0251a:0012
#02516:0000121200000000
#0251b:23
#02510:41
#02312:2300130000000013
#0231b:2313
#02316:00000000000000130000000000000000
#02317:00000013000000000000000000000000
#01217:00130000
#01212:13131300
#01216:0013000000000000
#0121b:0013000000002300
#01218:0000000000230000
#01012:00531300
#01015:0053000000000000
#0411a:14
#04112:14
#04012:00130000
#04018:00000013
#0401b:1313
#04015:0000000000232300
#03912:00000000000000000000000000130013
#03913:00000000000000000013001300000000
#03918:0000000000002313
#03919:0000000023130000
#03914:00000000001300130000000000000000
#03915:00130013000000000000000000000000
#0391a:0000231300000000
#0391b:2313000000000000
#0781b:00132313
#07812:00000000230000000000001300000000
#07818:0023000000130000
#07815:00001300000000000013000000000000
#07518:0000000000130013
#0751b:23131313
#05017:23000000001300000000000000000000
#05018:00000013
#05015:0013
#0501b:0013000000000000
#05012:13
#05016:0023000000000000
#04616:0000000000140014
#0461b:0013000000001300
#04612:0013
#04617:0000001300000000
#04619:00130000
#04516:0014001400140014
#04512:23132313
#0451b:13231323
#0421a:0000000000240000
#04212:00000024
#00915:0000005300000053
#00912:00000053000000000000530000000000
#0685b:0063004300000000
#06852:0033000000000000
#06857:00230000
#06856:23
#06052:0053003300000000
#0605b:0043000000000000
#06056:00230000
#06057:23
#05252:0053003300000000
#0525b:0043000000000000
#05256:00230000
#05257:23
#0245b:00005313
#02456:00005313
#02457:0000000000230000
#02452:0000000000230000
#0445b:0063004300000000
#04452:0033000000000000
#04457:00230000
#04456:23
#02357:00000000000000000000001300000000
#0235b:0053
#01055:00000013
#01052:0053
#0475b:00130000
#04756:0000530000000053
#04752:13
#04757:63
#0695b:00130013
#06952:1313
#06956:0000000000000054
#0675b:1300000000000043
#06752:0000000000000053
#06756:53
#06152:00130013
#0615b:1313
#06156:0000000000000064
#05952:1300000000000033
#0595b:0000000000000063
#05957:63
#05352:00130013
#0535b:1313
#05356:0000000000000064
#05152:1300000000000033
#0515b:6300000000000063
#0015b:13
#00155:0000000000000053
#0455b:00130013
#04552:1313
#04556:0000000000000054
#0425a:0000000000140000
#04252:00000014
#0435b:1300000000000043
#04352:5300000000000053
#06656:00000000002300000000000000000000
#06658:0013
#06652:0063000000000000
#06655:00000013
#0655b:63
#06557:0023000000000000
#06552:00530000
#06556:0000002300000000
#03652:6363
#03655:00630000
#0355b:5353
#03558:00530000
#03454:0063
#03453:00630000
#03452:63
#03359:0053
#0335a:00530000
#0335b:53
#02255:0000000000000013
#02252:0000000000130000
#02256:00630000
#01855:0000000000000013
#01852:0000000000130000
#01856:00630000
#01455:0000000000000013
#01452:0000000000130000
#01456:00630000
#0325a:0062000000000000
#03154:0000000000000052
#02156:00000023
#02152:6300000000630000
#02157:0023
#0215b:0000005300000000
#01957:00000023
#0195b:5300000000530000
#01956:0023
#01952:0000006300000000
#02057:00530000
#02052:0063
#01756:00000023
#01752:6300000000630000
#01757:0023
#0175b:0000005300000000
#01557:00000023
#0155b:5300000000530000
#01556:0023
#01552:0000006300000000
#01356:00000023
#01352:6300000000630000
#01357:0023
#0135b:0000005300000000
#01657:00530000
#01157:00000023
#0115b:5300000000530000
#01156:0023
#01152:0000006300000000
#00752:00630063
#0075b:5353
#00656:0053
#00657:63
#00552:0063
#0055b:53
#00255:0000005300000000
#00258:0063000000000000
#05652:0000000000230000
#05656:0053
#0565b:0023000000000000
#05657:63
#05556:0000000000230000
#05552:0063
#05557:0023000000000000
#0555b:53
#05857:0023000000000000
#0585b:53
#05752:0000630000000023
#05755:00000053
#05756:0000002300000000
#0575b:5300000000230000
#05757:0023000063000000
#07456:0023000000000000
#07452:63
#0735b:0000530000000023
#07358:00000063
#07357:0000002300000000
#07352:6300000000230000
#07356:0023000053000000
#0725b:0000000000230000
#07257:0063
#07252:0023000000000000
#07256:53
#07157:0000000000230000
#0715b:0053
#07156:0023000000000000
#07152:63
#06455:0000006300001300
#06458:0000000000130000
#06358:0000000000000063
#0485b:0000005300001300
#04852:0000000000130000
#02956:0052
#02958:00520000
#02655:0052000000000000
#02552:0000000000000052
#01257:00530000
#01252:0063
#0035b:0000000000000013
#0415a:54
#04152:64
#04052:00630000
#0405b:53
#0785b:00000013
#05057:00000000002300000000000000000000
#05058:00000013
#05055:0013
#0505b:0053000000000000
#0495b:0000002300000000
#04958:00530000
#04952:0023000000000000
#04955:63
#001350:0000000000000013
#002320:0023000000000000
#002381:0013000000000000
#0023b1:0000002300000000
#002350:0000001300000000
#002320:0000000000230000
#0053b0:13
#005370:00230000
#005321:13230000
#005321:0013
#005361:00000023
#0053b0:00001323
#006370:13
#0063b0:00230000
#006321:13230000
#006361:0013
#006321:00000023
#0063b0:00001323
#0073b0:13
#007370:00230000
#007321:00130000
#007361:0023
#0073b0:0013
#007370:00000023
#007321:00000013
#008351:23
#009381:16
#0103a1:00000022
#010320:0013
#010350:00000023
#0113b0:13
#011380:00000023000000000000000000000000
#011320:0000001300230000
#011360:0053
#0113b1:0000000000130023
#011371:00000053
#012371:00130000
#0123b1:0023
#012320:0013
#012350:00000023
#0123b1:00000000000000000000000013535353
#0123a1:0000000000000000000000000000000000000000000000000053005300530053
#0133b1:23
#013320:13
#013350:00000023000000000000000000000000
#0133b0:0000001300230000
#013370:0053
#013321:0000000000130023
#013361:00000053
#014361:00130000
#014321:0023
#0153b1:13
#015381:00000023000000000000000000000000
#015321:0000001300230000
#015361:0053
#0153b0:0000000000130023
#015370:00000053
#016370:00130000
#0163b0:0023
#017320:13
#017350:00000023000000000000000000000000
#0173b0:0000001300230000
#017370:0053
#017321:0000000000130023
#017361:00000053
#018361:00130000
#018321:0023
#0193b1:13
#019381:00000023000000000000000000000000
#019321:0000001300230000
#019361:0053
#0193b0:0000000000130023
#019370:00000053
#020370:00130000
#0203b0:0023
#020321:0013
#020351:00000023
#0203b0:00000000000000000000000013535353
#0203a0:0000000000000000000000000000000000000000000000000053005300530053
#0213b0:23
#021321:13
#021351:00000023000000000000000000000000
#0213b1:0000001300230000
#021371:0053
#021320:0000000000130023
#021360:00000053
#022360:00130000
#022320:0023
#0233b0:0013
#023370:00000000000000000000002300000000
#0243b0:00001323
#024370:0000000000530000
#024361:00001323
#024321:0000000000530000
#025321:0000000000000012
#026351:0032000000000000
#026321:0000002200000000
#029381:00120000
#0293a1:0022
#029360:0012
#029340:00000022
#031340:0000000000000012
#032360:0022000000000000
#0323a1:0012000000000000
#032381:0000002200000000
#0333b1:13
#0333a1:00530000330000000000000000000000
#033391:00000000005300003300000000000000
#033381:00000000000000000053000023000000
#034321:13
#034331:00530000330000000000000000000000
#034341:00000000005300003300000000000000
#034351:00000000000000000053000023000000
#0353b1:1300005333000000
#035381:0053330000532300
#036321:1300005333000000
#036351:0053330000532300
#0403b1:13
#040381:00230000
#040320:00130000
#040350:0023
#0413a0:14
#042380:0022
#041321:14
#042361:0022
#043321:13
#043361:00230000
#043321:0000000000000013
#044361:53
#044321:0023000000000000
#0443b0:0013002300000000
#044370:00530000
#045360:0000000000000014
#046320:0000002400000000
#047370:13
#0473b0:00230000
#047361:00130000
#047321:0023
#047361:0000000000000013
#048321:0023000000000000
#0483b1:0000001300000000
#048371:0000000000230000
#049351:13230000
#049321:0053000000000000
#049380:00132300
#0493b0:0000005300000000
#0503b0:0013000023000000
#050370:00000000005300000000000000000000
#0513b0:13
#051370:00230000
#0513b0:0000000000000013
#052370:53
#0523b0:0023000000000000
#052321:0013002300000000
#052361:00530000
#053361:0000000000000014
#0543a1:0000002400000000
#0553b1:13230000
#055371:0053000000000000
#055320:13230000
#055320:00001323
#055360:0000000000530000
#0553b1:00001323
#056371:13230000
#0563b1:0053000000000000
#056320:13230000
#056360:00001323
#056320:0000000000530000
#0563b1:00001323
#0573b1:13230000
#057371:0053000000000000
#057320:00132300
#057360:0000005300000000
#057371:0013
#0573b1:0000000000530000
#057381:00000023
#057350:00000013
#057320:0000000000000053
#058360:23
#0583b1:13230000
#058371:0053000000000000
#059371:13
#0593b1:00230000
#0593b1:0000000000000013
#060371:53
#0603b1:0023000000000000
#060320:0013002300000000
#060360:00530000
#061360:0000000000000014
#0623a0:0000002400000000
#063380:0000000000000013
#0643b0:0023000000000000
#064350:0000001300000000
#064320:0000000000230000
#0653b0:13230000
#065370:0053000000000000
#065321:00132300
#065361:0000005300000000
#066321:0013000023000000
#066361:00000000005300000000000000000000
#067361:13
#067321:00230000
#067321:0000000000000013
#068361:53
#068321:0023000000000000
#0683b0:0013002300000000
#068370:00530000
#069360:0000000000000014
#070320:0000002400000000
#071320:13230000
#071360:0053000000000000
#0713b1:13230000
#0713b1:00001323
#071371:0000000000530000
#071320:00001323
#072360:13230000
#072320:0053000000000000
#0723b1:13230000
#072371:00001323
#0723b1:0000000000530000
#072320:00001323
#073320:13230000
#073360:0053000000000000
#0733b1:00132300
#073371:0000005300000000
#073360:0013
#073320:0000000000530000
#073350:00000023
#073381:00000013
#0733b1:0000000000000053
#074371:23
#074320:13230000
#074360:0053000000000000
#075320:1353535353535353
#075330:00530053005300530053005300530053
#076320:23
#0763b1:1353535353535353
#0763a1:00530053005300530053005300530053
#0773b1:23
#009920:00000013000000000000530000000000
#009950:0000005300000053
#010950:0053000000000000
#010920:00230000
#076920:0000000000130023
#076960:00000053
