This file was generated by Ched 2.7.0.0.
#TITLE ""
#ARTIST ""
#DESIGNER ""
#DIFFICULTY 0
#PLAYLEVEL
#SONGID ""
#WAVE ""
#WAVEOFFSET 0
#JACKET ""
#REQUEST "ticks_per_beat 480"
#00002: 4
#BPM01: 174
#00008: 01
#TIL00: ""
#VOLUME: ""
#HISPEED 00
#MEASUREHS 00
#0431b:0000001300000013
#04315:0013
#04318:2300000000130000
#04312:00130013
#0431f:21
#04418:0000001300001300
#04415:0013000000130013
#04410:41
#04515:0013000000130000
#04518:0000001300000013
#0451b:2323
#04512:00230023
#04612:0013000000000013
#04618:00130013
#04615:0000001300130000
#0461b:0013
#04718:1313
#04712:0000000000130000
#0471b:00000013
#04715:0000130000000013
#0481b:0013000000000000
#04815:0000000000130000
#04818:00000013
#04819:00330000
#04912:1313
#04918:1300000000130000
#0491b:0000130000000013
#04915:00130013
#07715:00000013000000000000000000002300
#07718:1300001300000000
#07712:0000000000130000
#0771b:00000013
#03715:0013001300130013
#0371b:2323
#03718:00230023
#04112:13
#0411b:13
#01116:00000014000000000000000000000000
#0111a:0000001400000000
#01112:2400000000130000
#01118:0000000000130000
#01115:0000000000000013
#0111b:0000000000000013
#01212:0013000000000000
#01218:00130000
#01215:0013
#0121b:0013
#0251a:0012
#02516:0000120000120000
#02518:0000001200001200
#02514:0000000000000012
#0251b:23
#02512:23
#02510:41
#02618:0000000000120012
#02616:00000012
#0261a:0012000000000000
#02614:0000001200000000
#02818:0012001200120000
#02816:00121200
#02814:00000012
#0281a:0000000000000012
#03018:0012000000000000
#03016:0000001200000000
#0301a:0000000000120000
#03014:00000012
#03118:1200000000120000
#03112:0012
#03114:00000012
#03116:00120000
#03218:0012
#03216:00000012
#05818:0013
#0581b:00000013
#05815:00000013
#01612:0013000013000000
#01618:00130000
#01615:00000000000000000000000000333333
#01614:00000033
#01613:00000000000000000033333300000000
#00318:13
#00319:0033330000000000
#0031a:0000003300000000
#0031b:0000000033333300
#0051b:13
#00512:0013
#00510:41
#0061a:14
#00612:0014
#00718:13131313
#00715:0013001300130013
#01316:00000014000000000000000000000000
#01312:0000001400000013
#0131b:0000000000130000
#01315:0000000000130000
#01318:0000000000000013
#0131a:14
#0141b:0013000000130013
#01415:00130000
#01418:0013
#01412:0013
#01516:00000014000000000000000000000000
#0151a:0000001400000000
#01512:1400000000130000
#01518:0000000000130000
#01515:0000000000000013
#0151b:0000000000000013
#01510:41
#01716:00000014000000000000000000000000
#01712:0000001400000013
#0171b:0000000000130000
#01715:0000000000130000
#01718:0000000000000013
#0171a:14
#0181b:0013000000130013
#01815:00130000
#01818:0013
#01812:0013
#01916:00000014000000000000000000000000
#0191a:0000001400000000
#01912:2400000000130000
#01918:0000000000130000
#01915:0000000000000013
#0191b:0000000000000013
#02012:0013000000000000
#02018:00130000
#02015:0013
#0201b:0013
#02116:00000014000000000000000000000000
#02112:0000001400000013
#0211b:0000000000130000
#02115:0000000000130000
#02118:0000000000000013
#0211a:14
#0221b:0013000000130013
#02215:00130000
#02218:0013
#02212:0013
#02416:00140000
#0241a:2434003400000000
#02316:0014
#02312:24000034340000340000003400000000
#03812:0013001300130013
#0381b:2323
#03818:00230023
#04018:1313
#04015:00130013
#05112:0000001300000013
#05118:0013
#05115:2300000000130000
#0511b:00130013
#05215:0000001300001300
#05218:0013000000130013
#05018:0023000000001300
#05015:0013
#0501b:0013
#05012:23000013
#05515:13
#0551b:13
#05518:0013
#05512:0013
#05510:41
#05616:13
#0561a:14
#05617:0013
#05612:0014
#05915:0000001300000013
#05918:0013
#05912:2300000000130000
#0591b:00130013
#06015:00000013
#0601b:0000000000130013
#06018:0013000000000000
#06012:0000001300000000
#06116:0014001400140014
#06112:2424
#0611a:00240024
#0621b:0013000000000013
#06215:0000130000130000
#06218:0000001300001300
#06212:0013
#06315:13000013
#06312:0013000013000000
#06318:0000130000130000
#0631b:0000001300000013
#06418:0013000000000000
#0641b:0000000000130000
#06412:0013000000001300
#0641a:00330000
#06414:00330000
#0651b:1313
#06518:0000130000130000
#06512:0000130000000013
#06515:13000013
#06612:00000013
#0661b:2313
#06615:0023000013000000
#06618:00000013
#06718:0000001300000013
#06715:0013
#0671b:2300000000130000
#06712:00130013
#06710:41
#06818:00000013
#06812:0000000000130013
#06815:0013000000000000
#0681b:0000001300000000
#06916:0014001400140014
#0691a:2424
#06912:00240024
#07012:0013000000000013
#07018:0000130000130000
#07015:0000001300001300
#0701b:0013
#07412:00000013
#07418:00000013
#07415:0013
#07118:13
#07112:13
#07115:0013
#0711b:0013
#07217:13
#07212:14
#07216:0013
#0721a:0014
#05318:0013000000130000
#05315:0000001300000013
#05312:2323
#0531b:00230023
#0541b:0013000000000013
#05415:00130013
#05418:0000001300130000
#05412:0013
#00212:0013000000000000
#00218:0000001300001300
#00215:0000000000130013
#00412:0013000000000013
#00418:00130013
#00415:0000001300130000
#0041b:0013
#00816:00140014
#0081a:24343434003434340000000000000000
#00812:00000000000000002434343400343434
#02712:13
#02718:0013000000000000
#02715:00130000
#0271b:0000001300000000
#03916:00140014
#0391a:24343434003434340000000000000000
#03912:00000000000000002434343400343434
#0331f:11
#0331b:23
#04212:00000023
#0421b:0000000000230000
#0751b:23
#0011b:23
#0011a:0000333300000000
#00119:0033
#00118:0000000000333300
#03412:23
#03518:23
#03615:23
#07818:0023000023000000
#07815:00230000
#00918:00000036000036000000360000003600
#01018:0036360036000000
#04358:13
#0435b:0000000000000013
#04758:13
#04755:00130000
#0485b:0053000000000000
#04855:0000000000130000
#04858:00000013
#04152:63
#0415b:53
#01652:0063
#0015b:53
#00358:53
#0035b:0000000000000013
#0055b:53
#00552:0063
#0065a:54
#00652:0064
#0105a:00000012
#01255:0053
#0125b:0053
#02055:0053
#0205b:0053
#0245a:54000014
#02456:00240000
#02352:54
#02356:0024
#04455:0013000000000000
#04458:0000001300000000
#05152:0000000000000013
#05155:13
#05258:0013000000000000
#05255:0000001300000000
#05555:53
#0555b:53
#05558:0063
#05552:0063
#05656:53
#0565a:54
#05657:0063
#05652:0064
#05955:0000000000000013
#05952:13
#06458:0063000000000000
#0645b:0000000000130000
#06452:0063000000001300
#06058:0013000000000000
#06052:0000001300000000
#06758:0000000000000013
#0675b:13
#06855:0013000000000000
#0685b:0000001300000000
#07158:63
#07152:63
#07155:0053
#0715b:0053
#07257:63
#07252:64
#07256:0053
#0725a:0054
#0085a:54
#00856:00240024
#00852:0064
#03956:00240024
#0395a:54
#03952:0064
#07852:00000013
#0013b0:13
#0013a0:0000333300000000
#001390:0033
#001380:0000000000333323
#003380:13
#003390:0033330000000000
#0033a0:0000003300000000
#0033b0:0000000033333323
#0053b0:13
#005380:0000002300000000
#005320:0013
#005350:0000000000000023
#0063a0:14
#006360:0000002400000000
#006320:0014
#006360:0000000000000024
#0083a0:14343434003434342400000000000000
#008360:00340000
#008321:00000000000000001434343400343434
#008361:00000034
#009321:24
#009380:16000036000036000000360000003600
#010380:0036360036000000
#0103a0:00000022
#012350:0013
#012320:00000023
#0123b1:0013
#012381:00000023
#016321:0013
#016331:00000000000000000033333300000000
#016341:00000033
#016351:00000000000000000000000000333333
#017351:23
#020351:0013
#020321:00000023
#0203b0:0013
#020380:00000023
#023320:14000034340000340000003400000000
#023360:0034
#024320:24
#0243a1:1434003434002400
#024361:00340000
#027321:0013
#027351:0000000000333323
#029321:1333
#029351:0000330000003323
#0313a1:0000000000000012
#0323a1:0022000000000000
#0333b1:13
#0333a1:0053330000000000
#033391:0000005333000000
#033381:0000000000532300
#034321:13
#034331:0053330000000000
#034341:0000005333000000
#034351:0000000000532300
#035381:13
#035391:0053330000000000
#0353a1:0000005333000000
#0353b1:0000000000532300
#036351:13
#036341:0053330000000000
#036331:0000005333000000
#036321:0000000000532300
#0393a1:14343434003434342400000000000000
#039361:00340000
#039320:00000000000000001434343400343434
#039360:00000034
#040320:24
#041320:13
#042350:0023
#0413b1:13
#042381:0023
#0483b1:0013000000000000
#048391:00330000
#048381:0000002300000000
#055351:13
#055321:0000002300000000
#0553b0:13
#055380:0000002300000000
#055380:0013
#0553b0:0000000000000023
#055321:0013
#055351:0000000000000023
#056361:13
#056321:0000002300000000
#0563a0:14
#056360:0000002400000000
#056370:0013
#0563b0:0000000000000023
#056321:0014
#056361:0000000000000024
#0573b1:13
#057381:00230000
#057320:00130000
#057350:0023
#057381:0013
#0573b1:00000023
#057350:00000013
#058320:23
#0583b1:13
#058381:00230000
#058320:00130000
#058350:0023
#064380:0013000000000000
#0643a0:00330000
#0643b0:0000002300000000
#064321:0013000000000000
#064341:00330000
#064351:0000002300000000
#071381:13
#0713b1:0000002300000000
#071320:13
#071350:0000002300000000
#071350:0013
#071320:0000000000000023
#0713b1:0013
#071381:0000000000000023
#072371:13
#0723b1:0000002300000000
#072320:14
#072360:0000002400000000
#072360:0013
#072320:0000000000000023
#0723a1:0014
#072361:0000000000000024
#073321:13
#073351:00230000
#0733b0:00130000
#073380:0023
#073351:0013
#073321:00000023
#073380:00000013
#0743b0:23
#074321:13
#074351:00230000
#0743b0:00130000
#074380:0023
#0753b0:1353535353535353
#0753a0:00530053005300530053005300530053
#0763b0:23
#076321:1353535353535353
#076331:00530053005300530053005300530053
#077321:23
#078321:00001323
