This file was generated by Ched 2.7.0.0.
#TITLE ""
#ARTIST ""
#DESIGNER ""
#DIFFICULTY 0
#PLAYLEVEL
#SONGID ""
#WAVE ""
#WAVEOFFSET 0
#JACKET ""
#REQUEST "ticks_per_beat 480"
#00002: 4
#BPM01: 174
#00008: 01
#TIL00: ""
#VOLUME: ""
#HISPEED 00
#MEASUREHS 00
#04212:0000000000162600
#04218:0000000000261600
#04312:1300000000130013
#04316:0013000013001300
#04317:0000130000130013
#04319:0000001300000000
#0431b:23001313
#0431f:21
#04416:1300130000000013
#04412:0013001300001300
#0441b:0013000000130013
#04417:0000001300001300
#04410:41
#04518:16261626
#04515:0016001600160000
#04512:26162616
#04516:0000000000000014
#0451a:0000000000000014
#0461b:0013000013000000
#04619:00130000
#04617:0000001300000000
#04612:00001613
#04616:0000000000140014
#04618:00000016
#0471b:1300000000130000
#04717:0013000013001300
#04712:13130013
#04716:0000001300130000
#04718:0000000000000013
#04715:0000000000000013
#0481b:0013001300000000
#04812:00131300
#04816:0013001300000000
#04817:00131300
#04917:1300130000000013
#0491b:0013001300001300
#04912:1300130013000013
#04914:0000000000130000
#04916:00000013
#04919:0000000000130000
#0501b:13000000001300000000000000000000
#05017:0013000000000000
#05016:2300130000000014
#05012:0023000013002600
#05014:0000001300000000
#05019:00000000000000130000000000000000
#05018:0000000000260000
#0511b:1300000000130013
#05117:0013000013001300
#05116:0000130000130013
#05114:0000001300000000
#05112:23001313
#0521b:0013001300001300
#05212:0013000000130013
#05216:0000001300001300
#05217:1300130000000013
#05312:1600260016002614
#05315:0016001600160000
#05318:26162616
#05316:0000000000000014
#05412:0013000013001600
#05414:00130000
#05416:0000001300140014
#05418:0016
#0541b:00000013
#05512:13131300
#0551b:13000013
#05517:00130000
#05515:0000001300000000
#05516:00000013
#05518:0000000000000013
#05510:41
#05612:00131300
#0561b:13000013
#05615:0000001300000000
#05616:00000013
#05617:00130000
#05618:0000000000000013
#0571b:13130000
#05717:0013001300001300
#05716:0000130000130013
#05712:00001313
#0581b:13001313
#05817:0013000000000000
#05812:00130013
#05818:00000000000000000013000000130013
#05815:0000000000130013
#05816:0000001300000000
#0591b:1300000000130013
#05917:0013000013001300
#05916:0000130000130013
#05914:0000001300000000
#05912:23001313
#0601b:0000001300001300
#06012:1300130000000013
#06016:0000001300001300
#06017:0000000000130013
#06015:0013000000000000
#06018:0013000000000000
#06112:1800160000002414
#06116:0014001400141814
#06118:00241600
#0611a:24
#06114:0024
#06212:0013000013001600
#06214:00130000
#06216:0000001300140014
#06218:0016
#0621b:00000013
#06318:1600000000000013
#06316:00001313
#06312:1400160000130000
#0631b:00001313
#06317:0000000000130000
#06315:0000000000000013
#06314:0018001800000000
#0631a:00140000
#06412:0013001300000000
#0641b:00131300
#06417:0013001300000000
#06416:00131300
#0651b:1300130013000013
#06519:0000000000130000
#06517:00000013
#06512:13130013
#06514:0000000000130000
#06516:0013001300000013
#06612:13000000001300000000260000000000
#06616:0013000000000014
#0661b:0023000013000000
#06617:23130000
#06619:0000001300000000
#06614:00000000000000130000000000000000
#06618:00000026
#07415:00000000000000000013000000130013
#07418:0000000000130013
#07412:13001313
#07416:0013000000000000
#0741b:00130013
#07417:0000001300000000
#06712:1300000000130013
#06716:0013000013001300
#06717:0000130000130013
#06719:0000001300000000
#0671b:23001313
#06710:41
#06812:0000001300001300
#0681b:1300130000000013
#06817:0000001300001300
#06816:0000000000130013
#06818:0013000000000000
#06815:0013000000000000
#06916:1814001400140014
#06918:00162400
#06912:24001618
#0691a:0000000000002414
#06914:00240000
#0701b:0013000013000000
#07019:00130000
#07017:0000001300000000
#07012:00001613
#07016:0000000000140014
#07018:00000016
#0751c:00120000
#07519:0012
#07517:0000000000120012
#07515:00000012
#07514:00120000
#07512:2c
#07612:2c12000000000000
#07614:0000001200000000
#07615:0000000000120000
#07617:00000012
#07619:0000000000000012
#0761c:0000001200000000
#0771b:00000013000000001300000013000000
#07717:0000001300130000
#07712:0000000000130026
#07716:00001313
#07718:0000000000000016
#07812:0016260013001c00
#07818:0026160026130000
#07815:00000000000000000013000000000000
#0781b:00000000000000000000001300000000
#03318:1600001316000013
#03315:0013000000130000
#03312:23162316
#0331f:11
#0331b:00230023
#03518:16261626
#03516:0014001400140014
#03512:26162616
#03616:0014281400142814
#0361a:1414000014140000
#03612:2800141428001414
#03715:0013291300000000
#03712:2c0000002c132913
#0381b:0013001300000000
#03818:0000000000130013
#03812:2c002c29
#03815:00290000
#0391a:0013000000000000
#03918:0000001300000000
#03912:00130000000000000000000000000000
#03913:00000013000000000000000000000000
#03914:00000000001300000000000000000000
#03915:00000000000000130000000000000000
#03916:00000000000000002414141424141414
#0391b:23
#03919:00230000
#0401b:1300001313130000
#04018:00000013
#04012:0013130000230000
#04015:00000023
#04112:14
#0411a:14
#0011b:00130013
#00119:0000001300130013
#00117:0013
#00116:00130013
#00112:2c13
#00315:0013000000130000
#00318:00130013
#0031b:0000001300000013
#00312:2c00000013000013
#00418:0013000000130013
#00415:00130013
#00412:0000001300000000
#0041b:00001313
#0051b:1300000013000013
#00517:0000001300000000
#00516:0000000000000013
#00512:1300001313000000
#00510:41
#00617:0000001313000000
#00616:1300000000000013
#00612:0000001313000000
#0061b:1300000000000013
#0071b:1313
#00717:0013000000130000
#00712:1414130000141300
#00716:0000001300000013
#0071a:0000001400000014
#00815:00131600001316002600001326000013
#00812:00000013000000130013000000130000
#00818:2600260000160016
#00912:12005252
#00914:00000052000000000000000000000000
#00916:0000005200520052
#01012:0052000013000000
#01016:00520000
#01118:0013000000000000
#01115:00000013000000000000000000000000
#0111b:23130000
#01112:2300001300000000
#01117:0000001300000000
#01116:0013
#01114:0000000000130000
#01119:0000000000000013
#0121b:13131323
#01212:0013001300000000
#01217:0013000000000000
#01216:00131300
#01218:0000000000230000
#01315:0013000000000000
#01318:00000013000000000000000000000000
#01312:13130000
#0131b:1300001300000000
#01316:0000001300000000
#01317:0013
#01319:0000000000130000
#01314:0000000000000013
#0141b:0013001300001300
#01416:0013000000140014
#01412:13131313
#01417:00131300
#01518:0013000000000000
#01515:00000013000000000000000000000000
#0151b:13130000
#01512:1300001300000000
#01517:0000001300000000
#01516:0013
#01514:0000000000130000
#01519:0000000000000013
#01510:41
#01612:00001300000013000012000000120000
#01617:0013000000000000
#0161b:13130000
#01616:00130000
#01618:00001212
#0161a:0000000000120012
#01614:00000000000000000000001200000012
#01715:0013000000000000
#01718:00000013000000000000000000000000
#01712:00130000
#0171b:0000001300000000
#01716:0000001300000000
#0171c:12
#01717:0013
#01719:0000000000130000
#01714:0000000000000013
#0181b:0013001300001300
#01816:0013000000140014
#01812:13131313
#01817:00131300
#01918:0013000000000000
#01915:00000013000000000000000000000000
#0191b:23130000
#01912:2300001300000000
#01917:0000001300000000
#01916:0013
#01914:0000000000130000
#01919:0000000000000013
#02012:0013001300000000
#02017:0013000000000000
#0201b:13131323
#02016:00131300
#02018:0000000000230000
#02115:0013000000000000
#02118:00000013000000000000000000000000
#02112:13130000
#0211b:1300001300000000
#02116:0000001300000000
#02117:0013
#02119:0000000000130000
#02114:0000000000000013
#0221b:0013001300001300
#02216:0013000000140014
#02212:13131313
#02217:00131300
#02317:0000000000001300130000000000000000000013000000000000000013000000
#02312:2300000000000000130000000000000000000013000000000000000013000000
#02316:00000000000000131300000000000000
#0231b:2313
#02418:0000000000141414
#02414:00000000130000000000001400140000
#02416:13
#02412:0013
#02417:0014000023000000
#02415:0000001400000000
#0241b:23
#02419:00230000
#02518:0000121200001212
#0251c:0012
#0251a:0000000000120000
#02515:00130013
#0251b:23
#02512:23
#02510:41
#0261c:0012000000000000
#02612:00130013
#02618:0000000000120012
#0261a:00000012
#02718:00130013
#02716:12120012
#02714:0012001200120000
#02712:0000000012000012
#0281b:00130013
#02812:0012000000120000
#02814:00121212
#02816:0000001200000012
#02914:12
#02915:00130013
#02918:00120000
#0291c:0012
#0291a:0000000000000012
#03012:00130013
#0301c:0012001200000000
#03018:0000000000121200
#03118:00130013
#03116:1212
#03112:00120012
#03114:0000000000120000
#0321b:00130013
#03216:0012000000001200
#03418:1616
#03416:0014001400140014
#03412:24162416
#0341a:00240024
#00212:2c13000000130000
#00216:0000001300000000
#00215:00000013
#00218:0000000000000013
#00217:0013000000000000
#0021b:0000001300000000
#0711b:13131300
#07112:13000013
#07116:00130000
#07118:0000001300000000
#07117:00000013
#07115:0000000000000013
#0721b:00131300
#07212:13000013
#07218:0000001300000000
#07217:00000013
#07216:00130000
#07215:0000000000000013
#07312:13130000
#07316:0013001300001300
#07317:0000130000130013
#0731b:00001313
#04258:0000000000160000
#04252:00000016
#0435b:13
#04352:5300000000000053
#04356:0023000000000000
#04357:0000000000000043
#04452:0053005300000000
#04456:23230000
#0445b:0043000000000000
#04457:0000004300000000
#04552:1616
#04558:00160016
#04556:0000000000000054
#0475b:63430000
#04757:0023000000000000
#04752:33530000
#04756:0000002300000000
#04758:0000000000000063
#04755:0000000000000053
#0485b:0000005300001300
#04857:0023
#04856:0000005300130000
#04852:0023
#04957:53530000
#0495b:0023002300000000
#04952:33330000
#05052:00001316
#05057:0063000000000000
#05058:0000000000160000
#0515b:6300000000000063
#05157:0023000000000000
#05152:13
#05156:0000000000000033
#05356:0000000000000064
#05358:1616
#05352:00160016
#0555b:5343
#05552:3353
#05555:0000005300000000
#05556:00000023
#05557:00230000
#05558:0000000000000063
#05652:3353
#05655:0000005300000000
#05656:00000023
#0565b:6343
#05657:00230000
#0575b:63634300
#05757:0023002300004300
#05752:33005353
#05756:0000330000230023
#0585b:63430000
#05857:0023000000000000
#05852:33533300
#05856:0000002300000000
#0595b:6300000000000043
#05957:0023000000000000
#05952:13
#05956:0000000000000063
#06156:0000000000000064
#0615a:14
#06158:00140000
#06154:0014
#06152:00000014
#06358:1600000000000063
#06355:0000000000000053
#06352:00160000
#06656:0053000000000000
#0665b:0013
#06652:0000000000160000
#06658:00000016
#05257:23230000
#0525b:0063006300000000
#05252:0033000000000000
#05256:0000003300000000
#06052:23230000
#06055:0063000000000000
#06056:0000006300000000
#06058:0043000000000000
#0605b:0000004300000000
#06552:53530000
#06556:0023002300000000
#0655b:43430000
#06752:5300000000000033
#06756:0023000000000000
#06757:0000000000000053
#0675b:13
#06956:0000000000000054
#06952:14
#06954:00140000
#06958:0014
#0695a:00000014
#0685b:23230000
#06858:0053000000000000
#06857:0000005300000000
#06852:0000003300000000
#06855:0033000000000000
#07552:1c
#07752:0000000000000016
#07858:0016000016000000
#07852:0016001c
#0405b:53
#04052:00630000
#04152:64
#0415a:54
#00152:1c
#0055b:5353
#00552:6363
#0075b:5353
#00757:0023000000230000
#00752:00630063
#00756:0000002300000023
#01052:0053
#01056:00000013
#0125b:00530000
#01256:0053
#01452:00630000
#01457:0063
#01456:0000000000140014
#0165b:00530000
#01852:00630000
#01857:0063
#01856:0000000000140014
#0205b:00530000
#02056:0053
#02252:00630000
#02257:0063
#02256:0000000000140014
#02352:0000000000000000000000000000000000000023000000000000000000000000
#02356:00000000000000005300004300000000
#0235b:00000000000000005300004300000000
#02357:0000000000000000000000000000000000000023000000000000000000000000
#02555:00130013
#02558:0000000000000052
#0265c:0052000000000000
#02652:00130013
#02758:00130013
#0285b:00130013
#02955:00130013
#02958:00520000
#0295c:0052
#03052:00130013
#03058:00000052
#03158:00130013
#0325b:00130013
#03256:0052000000000000
#03752:1c1c
#03852:1c1c
#00252:1c
#00352:1c00000000000013
#0035b:0000000000000013
#0135b:13
#01352:13
#02152:13
#0215b:13
#07152:6333
#07156:00230000
#0715b:4363
#07158:0000006300000000
#07157:00000023
#07155:0000000000000053
#0725b:4363
#07258:0000006300000000
#07257:00000023
#07252:5333
#07256:00230000
#07352:53533300
#07356:0023002300003300
#07357:0000430000230023
#0735b:43006363
#07452:53330000
#07456:0023000000000000
#0745b:43634300
#07457:0000002300000000
#07652:1c
#06452:0000006300001300
#06456:0023
#06457:0000006300130000
#0645b:0023
#00656:63
#0065b:53
#00657:0053
#00652:0063
#005320:13
#005370:00230000
#0053b1:13
#005321:00230000
#0053b1:0013
#005361:00000023
#005320:0013
#0053b0:00000023
#006360:13
#0063b0:00230000
#0063b1:13
#006321:00230000
#006371:0013
#006321:00000023
#006320:0013
#0063b0:00000023
#0073b0:13230000
#007370:0053000000000000
#007321:00132300
#007361:0000005300000000
#0073b0:00001323
#007370:0000000000530000
#007321:00000013
#007361:0000000000000053
#008321:23
#009381:16
#0103a1:00000022
#010320:0013
#010360:00000023
#0113b0:0013
#011370:00000023
#011321:00000013
#012361:23
#0123b1:00130000
#012371:0000002300000000
#012361:0013
#012321:00000023
#013321:0013
#013361:00000023
#0133b0:00000013
#014370:23
#014320:00130000
#014360:0000002300000000
#014370:0013
#0143b0:0000000000230000
#0153b0:0013
#015370:00000023
#015321:00000013
#016361:23
#0163b1:00130000
#016371:0000002300000000
#017321:0013
#017361:00000023
#0173b0:00000013
#018370:23
#018320:00130000
#018360:0000002300000000
#018370:0013
#0183b0:0000000000230000
#0193b0:0013
#019370:00000023
#019321:00000013
#020361:23
#0203b1:00130000
#020371:0000002300000000
#020361:0013
#020321:00000023
#021321:0013
#021361:00000023
#0213b0:00000013
#022370:23
#022320:00130000
#022360:0000002300000000
#022370:0013
#0223b0:0000000000230000
#023360:00000000000000001300002300000000
#023320:0000000000000000000000000000000000000053000000000000000000000000
#0233b1:00000000000000001300002300000000
#023371:0000000000000000000000000000000000000053000000000000000000000000
#025381:0000000000000012
#0263c1:0032000000000000
#026381:0000002200000000
#029381:00120022
#0293c1:0032
#030381:00000012
#0313c1:22
#031361:0000000000000012
#032341:32
#032361:0032000000000000
#032321:0022
#0403b1:13
#040371:00230000
#040320:00130000
#040360:0023
#041320:14
#0423c0:0022
#0413a1:14
#042321:0022
#043321:13230000
#043361:0053000000000000
#043321:0000000000000013
#044361:5300530000230000
#044321:0053005300000000
#045361:0000000000000014
#046321:0000002400000000
#0473b1:13230000
#047371:0053000000000000
#047320:00132300
#047360:0000005300000000
#047380:0000000000000013
#0483b0:23
#047351:0000000000000013
#048321:23
#0483b1:0000001300332300
#048371:0053
#048360:0000001300230000
#048320:0053
#049371:13532300
#0493b1:0053005300000000
#050371:0013000000000000
#0503b1:00230000
#0513b1:13230000
#051371:0053000000000000
#0513b1:0000000000000013
#052371:5300530000230000
#0523b1:0053005300000000
#053361:0000000000000014
#0543a1:0000002400000000
#0553b1:1323
#055371:00530000
#055350:0000001300000000
#055320:0033
#055360:00000053
#056320:23
#055381:0000000000000013
#0563b1:3323
#056371:00530000
#056350:0000001300000000
#056320:0033
#056360:00000053
#057320:23
#0573b1:13332300
#057371:0053005300000000
#057320:00001333
#057360:0000000000530053
#058320:23
#0583b1:13230000
#058371:0053000000000000
#058320:00132300
#058360:0000005300000000
#0593b0:13230000
#059370:0053000000000000
#059360:0000000000000013
#060320:5300530000230000
#060350:0053000000000000
#060360:0000005300000000
#061360:0000000000000014
#0623a0:0000002400000000
#063350:0000000000000013
#064320:23
#063381:0000000000000013
#0643b1:23
#064321:0000001300332300
#064361:0053
#064370:0000001300230000
#0643b0:0053
#065321:13532300
#065361:0053005300000000
#066361:0013000000000000
#066321:00230000
#067321:13230000
#067361:0053000000000000
#067371:0000000000000013
#0683b1:5300530000230000
#068381:0053000000000000
#068371:0000005300000000
#069361:0000000000000014
#070321:0000002400000000
#071321:1323
#071361:00530000
#071380:0000001300000000
#0713b0:0033
#071370:00000053
#0723b0:23
#071351:0000000000000013
#072321:3323
#072361:00530000
#072380:0000001300000000
#0723b0:0033
#072370:00000053
#0733b0:23
#073321:13332300
#073361:0053005300000000
#0733b0:00001333
#073370:0000000000530053
#0743b0:23
#074321:13230000
#074361:0053000000000000
#0743b0:00132300
#074370:0000005300000000
#077320:1300532300000000
#077360:00530053000000000000000000000000
#009920:12005252
#009940:00000052000000000000000000000000
#009960:0000005200520052
#010920:0052000000000000
#010960:00220000
#0129b0:00000013
#012960:0000000000000000000000000000000000000000000000000053000000000000
#0129a0:00000000000000000000000000530000
#012950:0000000000000000000000000000000000000000000000000000005300000000
#012990:0000000000000053
#012940:0000000000000000000000000000000000000000000000000000000000530000
#012980:00000000000000000000000000000053
#012930:0000000000000000000000000000000000000000000000000000000000000023
#0209b0:00000013
#020960:0000000000000000000000000000000000000000000000000053000000000000
#0209a0:00000000000000000000000000530000
#020950:0000000000000000000000000000000000000000000000000000005300000000
#020990:0000000000000053
#020940:0000000000000000000000000000000000000000000000000000000000530000
#020980:00000000000000000000000000000053
#020930:0000000000000000000000000000000000000000000000000000000000000023
