This file was generated by Ched 2.7.0.0.
#TITLE ""
#ARTIST ""
#DESIGNER ""
#DIFFICULTY 0
#PLAYLEVEL
#SONGID ""
#WAVE ""
#WAVEOFFSET 0
#JACKET ""
#REQUEST "ticks_per_beat 480"
#00002: 4
#BPM01: 174
#00008: 01
#TIL00: ""
#VOLUME: ""
#HISPEED 00
#MEASUREHS 00
#0051a:14140000
#00514:00001414
#00510:41
#00618:14140000
#00612:00001414
#0071a:1414
#00712:00140014
#00818:1414
#00814:00140014
#01118:00140000
#01114:0014
#0111a:00000014
#01112:24
#0151a:00140000
#01518:00000014
#01512:0014
#01514:14
#01510:41
#01318:0014
#0131a:14
#01314:00140000
#01312:00000014
#01712:00140000
#01714:00000014
#0171a:0014
#01718:14
#01918:00140000
#01914:0014
#0191a:00000014
#01912:24
#02118:0014
#0211a:14
#02114:00140000
#02112:00000014
#03312:24140000
#03318:00001414
#0331f:11
#03414:14140000
#0341a:00001414
#03512:14140000
#03518:00001414
#03614:14140000
#0361a:00001414
#03912:14
#0391a:00140000
#03914:0014
#03918:00000014
#04012:14
#0401a:00140000
#04014:0014
#04018:00000014
#04112:14
#04314:00140000
#04318:0014
#0431a:24
#0431f:21
#04418:00140014
#04414:0014
#04410:41
#04512:14
#0451a:00140000
#04514:0014
#04518:00000014
#04612:14001414
#0461a:00140000
#0471a:14
#04716:00140014
#04712:0014
#0481a:14
#04816:00140000
#04812:00001414
#0491a:14
#04912:00140000
#04918:0014
#04914:00000014
#05014:0014
#0501a:00000014
#05118:00140000
#05114:0014
#05112:24
#05214:00140014
#05218:0014
#0531a:14
#05312:00140000
#05318:0014
#05314:00000014
#0541a:14001414
#05412:00140000
#05712:14
#0571a:00140000
#05714:0014
#05718:00000014
#05814:0014
#0581a:00000014
#05812:14
#05818:00140000
#05918:00140000
#05914:0014
#05912:24
#06014:00140014
#06018:0014
#0611a:14
#06112:00140000
#06118:0014
#06114:00000014
#0621a:14001414
#06212:00140000
#06312:14
#06316:00140014
#0631a:0014
#06412:14
#06416:00140000
#0641a:00001414
#06512:14
#0651a:00140000
#06514:0014
#06518:00000014
#06618:0014
#06612:00000014
#06714:00140000
#06718:0014
#0671a:24
#06710:41
#06818:00140014
#06814:0014
#06912:14
#0691a:00140000
#06914:0014
#06918:00000014
#07012:14001414
#0701a:00140000
#0731a:14
#07312:00140000
#07318:0014
#07314:00000014
#07418:0014
#07412:00000014
#0741a:14
#07414:00140000
#0011a:24
#02312:24
#0241a:24
#02512:24
#02510:41
#0751a:24
#07714:0000000000000024
#0771a:0000000000240000
#07718:00000034000000000000000000000000
#07814:00240000
#0781a:0024
#07818:0024000000000000
#0091a:00000034000034000000340000003400
#0101a:0034340034000000
#05510:41
#0105a:00000014
#0245a:00000014
#04152:64
#0435a:14
#05152:14
#05952:14
#0675a:14
#0785a:00000014
#0013a0:14000024
#002340:14000024
#003380:14000024
#004320:14000024
#0093a0:14000034000034000000340000003400
#0103a0:0034340034002400
#012320:14
#012330:00340000
#012340:0024
#0143a0:14
#014390:00340000
#014380:0024
#016340:14
#016330:00340000
#016320:0024
#018380:14
#018390:00340000
#0183a0:0024
#020320:14
#020330:00340000
#020340:0024
#0223a0:14
#022390:00340000
#022380:0024
#023320:14000034340000343400003424000000
#0243a0:1434343434002400
#025320:14
#025340:00000024
#026380:14
#0263a0:00000024
#027340:14
#027320:00000024
#0283a0:14
#028380:00000024
#029320:14
#029340:00000024
#0303a0:14
#030380:00000024
#031340:14
#031320:00000024
#032380:14
#0323a0:00000024
#037320:1434240000000000
#037380:0000000014342400
#038340:1434240000000000
#0383a0:0000000014342400
#041320:14
#042340:00000024
#043320:00000014
#044340:24
#0503a0:14240000
#0513a0:00000014
#052380:24
#055320:14
#055340:00240000
#0553a0:0014
#055380:00000024
#056320:14
#056340:00240000
#0563a0:0014
#056380:00000024
#0593a0:00000014
#060380:24
#066320:14240000
#067320:00000014
#068340:24
#0713a0:14
#071380:00240000
#071320:0014
#071340:00000024
#0723a0:14
#072380:00240000
#072320:0014
#072340:00000024
#0753a0:1454545454542400
#075390:00540054005400540054005400000000
#076320:1454545454542400
#076330:00540054005400540054005400000000
#077380:14000034000000000000000000000000
#0773a0:0000002400000000
#0783a0:00001424
