This file was generated by Ched 2.7.0.0.
#TITLE ""
#ARTIST ""
#DESIGNER ""
#DIFFICULTY 0
#PLAYLEVEL
#SONGID ""
#WAVE ""
#WAVEOFFSET 0
#JACKET ""
#REQUEST "ticks_per_beat 480"
#00002: 4
#BPM01: 102
#BPM02: 91
#BPM03: 127
#BPM04: 128
#BPM05: 124
#BPM06: 90
#BPM07: 112
#BPM08: 100
#00008: 01
#02808: 00020000
#02908: 03
#03008: 04
#05508: 0500000700000806
#TIL00: ""
#VOLUME: ""
#HISPEED 00
#MEASUREHS 00
#0051a:14
#00614:14
#00718:14
#00812:14
#00918:14
#01014:14
#0111a:14
#01212:14
#01414:14
#01712:14
#01818:14
#0221a:14
#02314:14
#02414:14
#02518:14
#02618:14
#02610:41
#02712:14
#0271f:11
#02812:14
#03014:14
#03118:14
#03212:14
#03312:0016
#03318:26
#0331f:21
#03310:0041
#03418:1616
#03512:16
#03518:0016
#03612:1616
#03718:16
#03712:0016
#03818:16
#03812:0016
#04112:0016
#04118:16
#04110:41
#04318:0016
#04312:16
#04518:1616
#04612:1616
#04718:16
#04712:0016
#04818:16
#0511a:0014
#05212:0014
#05312:0014
#05418:0014
#0131a:14
#01310:41
#0211a:14
#0501a:0014
#0291a:24
#02010:41
#04910:41
#001390:14
#002390:24
#003330:14
#004330:24
#015380:14
#016380:24
#019340:14
#020340:24
#039380:1626
#040320:1626
#042380:1626
#044320:1626
#048320:0016
#050320:26
#055340:0014
#056340:34000024
