This file was generated by Ched 2.7.0.0.
#TITLE ""
#ARTIST ""
#DESIGNER ""
#DIFFICULTY 0
#PLAYLEVEL
#SONGID ""
#WAVE ""
#WAVEOFFSET 0
#JACKET ""
#REQUEST "ticks_per_beat 480"
#00002: 4
#BPM01: 102
#BPM02: 91
#BPM03: 127
#BPM04: 128
#BPM05: 124
#BPM06: 90
#BPM07: 112
#BPM08: 100
#00008: 01
#02808: 00020000
#02908: 03
#03008: 04
#05508: 0500000700000806
#TIL00: ""
#VOLUME: ""
#HISPEED 00
#MEASUREHS 00
#00218:00131300
#00212:1313
#0021b:0013000000002300
#00215:0000001300000013
#02112:1300001300001300
#0211b:23130013
#02115:0013
#02118:0000000000130013
#0011b:1300000000130000
#00112:00130023
#00115:1300001300000013
#00118:00001313
#00312:1300000000130000
#00318:1300001300000013
#0031b:00130023
#00315:00001313
#00415:0000130013000013
#0041b:1313
#00418:0000001300001300
#00412:0013000000002300
#00512:1300001300001300
#00515:0013
#00518:00000013000000000000130000001300
#0051b:13001313
#00615:1300130013000013
#00612:0013001300000000
#00618:0013001300001300
#0061b:13130000
#0071b:1300001300001300
#00718:0013
#00715:00000013000000000000130000001300
#00712:13001313
#01212:1313
#0121b:13000013
#0131b:00130013
#01314:0000001300000013
#01312:1313
#01319:0000000000130000
#01317:2313
#01316:00000013
#01310:41
#01416:00132300
#0141b:0000001300000000
#01419:0000000000000013
#01417:23000013
#01412:13
#02012:1300001300000013
#02015:00000013
#0201b:0013000000001300
#02016:0013000000000000
#02014:00130000
#02017:1300001300000000
#02019:00130000
#02010:41
#0231b:0000000013000013
#02315:0000130000130000
#02318:0000001300001300
#02312:1313
#02317:13
#02217:0000000000000013
#02215:13
#02218:0013000000000000
#02212:00130013
#02214:0000001300000000
#0221b:00131300
#02216:0013
#0241b:0000000000000013
#02412:24002413
#02416:0024002400140000
#0241a:00242400
#02512:23130013
#0251b:1300001300001300
#02518:0013
#02515:0000000000130013
#02718:0000130000130000
#02715:0000001300000000
#0271b:1313
#02716:1300000000000014
#02712:00001324
#0271f:11
#02915:00000013000013000000000000000013
#02918:00000000000000130000001300001300
#0291b:00130000
#02912:23000013
#0301b:1313000000000013
#03012:00140063
#03016:000000000000000000140000000000006300000000000000
#03015:00130000000000000000000000000000
#0301a:0014
#03014:000000000000000000000000000000230063000000000000
#03116:13000053
#0311b:00130013
#03112:00531300
#03115:00530000000000000000005300000000
#03114:0053000000530000
#03113:00000053000000000053000000000000
#0311a:00000000005300000000000000530000
#03119:0000005300000053
#03118:00000000000000530000000000000053
#03117:0053
#03218:0000000000000013
#0321b:0013000000000000
#03215:00000013
#03212:1300006300000000
#03214:000000236300000000000000
#03217:53
#03216:000000000000006300000000000000000000000000000000
#04019:0000002300000013
#04012:2323
#04014:0023000000000000
#0401b:00230023
#04017:2323
#04016:00230000
#04112:23132300
#04115:0000001300000013
#04118:0000000000130000
#04117:23
#0411b:00000023
#04110:41
#04218:0013000000000000
#04219:00130000
#0421a:0000001300000000
#0421b:0013
#04214:0000000000000013
#04212:23000023
#00012:00000013
#00018:0000000000000013
#04519:0000001300130013
#0451b:2313
#04515:2313
#04512:00130013
#04517:00130023
#04712:1313
#04714:0000001300130023
#04719:0000000000000013
#04716:00130023
#04718:1313
#0471b:00130000
#05015:001400140014001400140014000000000000000000000000000000000000000000000000130000000000000000130000
#05018:000014000000140000001400000000000000000000000000000000000000000000130000000000000000130000000000
#05016:141414000000000000000000
#05014:001400140014000000000000000000000000000000000000
#05019:001400140014001400140014000000000000000000000000000000000000000000000000000000000000000000000000
#0501a:141414000000000000000000
#05117:0013
#05115:0000230000000013
#05114:00000013
#05112:0013000013000000
#05119:0000001300000000
#05113:0000000000130000
#04615:0000000000000013
#04612:00232300
#04618:00000023
#0541b:0000130000000013
#05417:13
#05415:00230000
#05512:13230000
#05518:0000130000130000
#0551b:0000001300001353
#05515:0013000013000000
#05519:00000000000000000000000000530000
#0551a:0000000000000000000000000000000000000000000000000053000000000000
#01514:0013001300000000
#01512:00130013
#01519:0000000000130013
#01517:00130013
#0151b:13
#01516:2313
#0161b:1300001300000000
#01612:00131300
#01617:00131300
#01616:0000001300000000
#01614:0000000000000013
#01619:0000000000000013
#01717:13
#01715:0000130000000013
#01718:0000001300001300
#01716:0013
#01712:13
#0171b:0013
#01919:0000130000130013
#01914:0000130000130013
#0191b:1300001300001300
#01916:1300001300001300
#01917:0013000000000000
#01912:0013000000000000
#0281a:1414
#02816:0014001400000000
#02812:00140000
#04817:13
#0481a:0014000014000000
#04818:00140000
#04816:0024001424000014
#04812:2300002400000014
#04814:00240000
#04915:000000000000000000000000001400140014001400140014001400140014001400140014001400140014001400140014
#04916:000000141414141414141414
#04914:000000000000001400140014001400140014001400140014
#04919:000000000000000000000000001400140014001400140014001400140014001400140014001400140014001400140014
#0491a:000000141414141414141414
#04918:000000000000001400140014001400140014001400140014
#04910:41
#02618:13
#02615:0013000000000000
#0261b:00130013
#02619:0000001300000000
#02612:00131300
#02617:0013
#02616:0000000000000013
#02610:41
#03518:0000000000000014
#0351b:1313
#03514:0000000000140000
#03519:0000001300000000
#03512:13131400
#03516:00000024
#03414:0000001300000013
#0341b:13001323
#03412:13130000
#03419:0013000000000000
#03417:00130000
#03416:0023
#03318:0000001300000013
#03312:0000000000130000
#03315:00001313
#0331b:23131323
#0331f:21
#03310:0041
#0361a:14
#03615:0013000000000013
#03618:0000001300002300
#03612:23230000
#0361b:00232300
#03912:1313
#03918:0000000000130000
#03914:0000001300000000
#0391b:13131323
#03919:0000000000000023
#03915:00000023
#03819:0000001300000013
#03812:13001323
#0381b:13130000
#03814:0013000000000000
#03816:00130000
#03715:0000001300000013
#0371b:0000000000130000
#03718:00001313
#03712:23131323
#0431b:13130000
#04318:0000001300000013
#04316:13
#04315:0000000000130000
#04415:0013000000002300
#04414:00130000
#04413:0000001300000000
#04412:0013
#0441b:13
#04418:0000000000000023
#05216:1323
#05218:00000000230000000000000013000013
#05215:00000000000000000000001300001300
#05212:00130000
#05316:0013
#05318:0000230000000013
#05319:00000013
#0531b:0013000013000000
#05314:0000001300000000
#0531a:0000000000130000
#00818:2300130013000013
#0081b:0013001300000000
#00815:0013001300001300
#00812:23130000
#0181b:13
#01816:0013
#01812:13130000
#01817:00130013
#01814:0000003300000013
#01819:0000003300000013
#0091b:1300001300000000
#00912:00000013000000001300000000000000
#00915:1300000000130013
#00918:00000013
#0101b:1300001300000000
#01012:1300001300000000
#01018:00130013
#01015:0013000000000013
#01118:1300000000130013
#0111b:00000013000000001300000000000000
#01115:00000013
#01112:1300001300000000
#05614:00230000
#05617:53
#01252:0063
#0125b:53000063
#01352:53
#01357:13
#02152:63
#0215b:13
#02357:53
#0255b:53
#02552:13
#02756:63
#02752:00000014
#00652:0053006300000000
#00655:53636300
#00658:0053006300000000
#0065b:53631300
#05157:0063
#02952:13
#0165b:6300006300000000
#01652:00535300
#01657:00636300
#01656:0000005300000000
#0155b:53
#01557:00230000
#01552:00000023
#01556:0053
#01757:53
#01756:0053
#01752:13
#02052:5300002300000013
#02056:0023000000000000
#02054:00530000
#02057:5300002300000000
#0205b:0023000000000000
#02059:00530000
#0285a:1414
#02852:00140000
#04852:0000000000000024
#04856:0000000054000024
#0485a:0064
#04955:000000000000000000000000006400540064005400640054006400540064005400640054006400540064005400640054
#04956:000000242424242424242424
#04954:000000000000002400240024002400240024002400240024
#04959:000000000000000000000000006400540064005400640054006400540064005400640054006400540064005400640054
#0495a:000000242424242424242424
#04958:000000000000002400240024002400240024002400240024
#05055:006400540064005400640054000000000000000000000000000000000000000000000000000000000000000000000000
#05056:242424140000000000000000
#05054:002400240024000000000000000000000000000000000000
#05059:006400540064005400640054000000000000000000000000000000000000000000000000000000000000000000000000
#0505a:242424140000000000000000
#05058:002400240024000000000000000000000000000000000000
#02456:0000000000240000
#0245a:0064
#0225b:0053
#02652:0063
#03952:63
#04052:0053
#0425b:0013
#04252:63
#04152:13
#04157:53
#04452:0013
#0445b:53
#04356:53
#0455b:13
#04555:6363
#04552:00630063
#04758:5353
#0475b:00530000
#05256:5313
#05252:00230000
#05356:0053
#05457:6313
#0545b:00230000
#00558:00000023000000000000000000000000
#0055b:53
#00755:00000023000000000000000000000000
#00752:63
#0185b:63
#01856:0053
#01852:00530000
#01857:00630000
#0195b:6300002300000000
#01957:0023000000000000
#01959:00630000
#01956:6300002300000000
#01952:0023000000000000
#01954:00630000
#0085b:0063005300000000
#00858:53535300
#00855:0063005300000000
#00852:53531300
#00952:00000023000000000000000000000000
#00955:63
#0115b:00000023000000000000000000000000
#01158:53
#01457:23
#01456:0023
#0355b:53
#05657:53
#0335b:13
#03752:13
#0053b0:1300002300000000
#005380:00000053000000000000000000000000
#006350:13333300
#006320:0033003300002300
#0063b1:13332300
#006381:0033003300000000
#007320:1300002300000000
#007350:00000053000000000000000000000000
#008380:13333300
#0083b0:0033003300002300
#008321:13332300
#008351:0033003300000000
#009350:1300002300000000
#009320:00000053000000000000000000000000
#010350:00001323
#011380:1300002300000000
#0113b0:00000053000000000000000000000000
#0123b0:13
#012370:0023
#012321:0013
#012361:00000023
#0123b0:00000013
#013370:23
#013321:13
#013361:00230000
#014371:13
#0143b1:00230000
#014361:0013
#014321:00000023
#0153b1:1323
#015371:00330000
#015360:0013
#015320:00000033
#016360:23
#0163b1:1300003300002300
#016371:00333300
#016320:00133300
#016360:0000003300002300
#017370:13
#0173b0:00230000
#017360:0013
#017320:00000023
#0183b0:1323
#018370:00330000
#018390:0000003300000000
#018321:00130023
#018341:0000003300000000
#018361:0033
#0193b1:1300005300000000
#019371:0053000023000000
#019391:00530000
#019360:1300005300000000
#019320:0053000023000000
#019340:00530000
#020320:1300005300000000
#020360:0053000023000000
#020340:00530000
#020371:1300005300000000
#0203b1:0053000023000000
#020391:00530000
#021321:13
#021361:00230000
#0223b1:0013
#022371:00000023
#023371:13
#0233b1:00230000
#0243a1:00001424
#024361:0000000000540000
#0253b1:13
#025371:00230000
#026321:0013
#026361:00000023
#027361:13
#027321:00230000
#028321:0014
#029321:23
#0293b0:13000023000000000000000000000000
#029320:00000000000000001300002300000000
#032370:0013
#0323b0:00000023
#033320:13230000
#034360:00001323
#0353b0:13
#035370:00230000
#036320:0013
#036350:00000023
#0373b0:13230000
#038370:00001323
#039320:13
#039360:00230000
#040320:0013
#040360:00000023
#041370:13
#0413b0:0023
#041321:00001323
#0413b0:00000013
#0423b0:23
#042321:13
#042361:0023
#043361:13
#043321:0023
#0433b0:00001323
#043321:00000013
#044321:23
#0443b0:13
#044370:0023
#045350:1333
#045320:00330033
#046350:23
#0463b1:13
#046381:00230000
#046320:00130000
#046350:0000002300000000
#046381:0000001300000000
#0463b1:0023
#046320:00001323
#046350:0000000000530000
#047380:1333
#0473b0:00330023
#048360:0014
#048320:0000000000000054
#049360:000000545454545454545454
#049350:000000000000000000000000005400540054005400540054005400540054005400540054005400540054005400540054
#049340:000000000000005400540054005400540054005400540054
#050360:545454240000000000000000
#050350:005400540054005400540054000000000000000000000000000000000000000000000000000000000000000000000000
#050340:005400540054000000000000000000000000000000000000
#0483a1:0014
#048361:0000000000000054
#0493a1:000000545454545454545454
#049391:000000000000000000000000005400540054005400540054005400540054005400540054005400540054005400540054
#049381:000000000000005400540054005400540054005400540054
#0503a1:545454240000000000000000
#050391:005400540054005400540054000000000000000000000000000000000000000000000000000000000000000000000000
#050381:005400540054000000000000000000000000000000000000
#050321:00000000000000001300002300000000
#0513b1:13230000
#051371:0013
#0523b1:23
#052360:1323
#052320:00530000
#0523b1:00000000000000001300002300000000
#053321:13230000
#053361:0013
#054321:23
#054370:1323
#0543b0:00530000
#054321:0000000013000023
#030940:000000000000000000000000000000130053000000000000
#030960:000053
#030920:00000023
#031960:13
#031920:00230000
#0319b1:00130000
#031971:0023
#031920:0013
#031960:00000023
#0319b1:00000013
#032971:23
#032941:000000135300000000000000
#032961:000000000000005300000000000000000000000000000000
#032921:0000002300000000
#0559b1:0000000000001353
#055991:00000000000000000000000000530000
#056971:53
#0569c1:00000022
