This file was generated by Ched 2.7.0.0.
#TITLE ""
#ARTIST ""
#DESIGNER ""
#DIFFICULTY 0
#PLAYLEVEL
#SONGID ""
#WAVE ""
#WAVEOFFSET 0
#JACKET ""
#REQUEST "ticks_per_beat 480"
#00002: 4
#BPM01: 102
#BPM02: 91
#BPM03: 127
#BPM04: 128
#BPM05: 124
#BPM06: 90
#BPM07: 112
#BPM08: 100
#00008: 01
#02808: 00020000
#02908: 03
#03008: 04
#05508: 0500000700000806
#TIL00: ""
#VOLUME: ""
#HISPEED 00
#MEASUREHS 00
#00215:13130000
#00218:0013000013000013
#00212:0000001300002300
#00118:1300000000130000
#00112:0000130000000013
#0011b:0000001300002300
#00115:0013
#00515:1300000000000013
#00518:0013
#00512:0000000000130000
#0051b:00000013
#00615:0000000000000013
#0061b:0013001300000000
#00618:13131300
#01218:0013
#0121b:00000013
#01212:1313
#01215:00000013
#0131b:00130013
#01318:2300001300000000
#01312:2300000000130000
#01315:0000000013000013
#01310:41
#01418:2300000013000013
#0141b:00130000
#01415:00000013
#01419:0000003300000000
#02015:0000000000000013
#02018:00000013
#02012:1400001400000000
#02016:0014000000000000
#02014:00140000
#02010:41
#02112:00130013
#02118:2300001300000000
#02115:0000000013000013
#0211b:0000000000130000
#0231b:1300000000000013
#02312:0000001300000000
#02315:0000000000130000
#02318:00001313
#02418:0024000000000013
#02412:24
#02414:00240000
#0241a:0000002400000000
#02416:0024
#03018:0000130000000013
#03012:0000001300006300
#0301b:1313
#03015:0013000000630000
#03014:000063
#03013:000000000000000000000000000000000063000000000000
#03218:0013000000000013
#03215:13630013
#03214:000000000000006300000000000000000000000000000000
#03213:006300
#03212:0000006300000000
#00018:00000013
#00015:0000000000000013
#02218:1300001300001300
#0221b:0013000000000000
#02212:00130000
#02215:0000000000000013
#0451b:0000001300000000
#04515:0000000013000013
#04518:2300000000130000
#04512:00130013
#04618:0000000000000013
#04616:00230000
#05512:13000053
#05518:0000130000130000
#0551b:0000001300000000
#05515:0013000013000053
#05514:00000000000000000000000000530000
#05513:0000000000000000000000000000000000000000000000000053000000000000
#01515:0000001300000000
#01512:23130013
#01518:0000000013000013
#0151b:0013000000130000
#01715:0000001300000013
#01912:0000000000140000
#0191a:1400001400001400
#01916:0014000000000014
#01918:00140000
#04718:0000001300130000
#04715:1300000013000023
#04712:00000023
#03315:2300000013000013
#03318:0000130000130000
#03312:0000001300000000
#0331b:00000013
#0331f:21
#03310:0041
#03915:0000000000130000
#03912:1313
#03918:0000001300000023
#0391b:00000023
#03615:2300000000000013
#03618:0000001300001300
#0361b:0013000000000000
#03612:00230000
#00818:0000000000000013
#00818:0000000000000013
#00812:0013001300000000
#00815:23131300
#01618:00000013
#01615:1300000013000013
#01612:00130000
#01614:0000003300000000
#01812:0013000000001400
#01816:0000000000000014
#0181b:13
#01818:00131300
#01815:0000001300000000
#00918:0013
#00915:1300000000130000
#00912:0000000000000013
#0091b:00000013
#0101b:13
#01012:0000001300000000
#01015:0000130000000013
#01018:0013000000000000
#00718:1300000000000013
#00715:0013
#0071b:0000000000130000
#00712:00000013
#01115:0013
#01118:1300000000130000
#01112:00000013
#0111b:0000000000000013
#0251b:00130013
#02515:2300001300000000
#02518:0000000013000013
#02512:0000000000130000
#02712:1300000000000013
#0271b:0000001300000000
#02718:0000000000130000
#02715:00001313
#0271f:11
#02615:1300001300001300
#02612:0013000000000000
#0261b:00130000
#02618:0000000000000013
#02610:41
#0281a:14
#02814:0014000000000000
#02818:00140000
#02816:0014
#02812:0000001400000000
#02915:0000130000000013
#02918:0000001300001300
#02912:0013
#0291a:24
#04015:0023000000000013
#04018:0000002300001300
#04012:2323
#0401b:00230000
#04318:0000000013000013
#04315:1300001300001300
#0431b:00130000
#04312:0000000000130000
#04215:00000013
#04218:0000130000000013
#0421b:2313
#04219:0033003300000000
#04915:13
#04912:0013
#04918:13
#0491b:0013
#04910:41
#0481b:0023000013000000
#04818:23230000
#04812:0023
#04815:0000002300000000
#05012:0013
#05112:00130013
#05116:1313
#0521b:00130013
#05218:13
#05217:0013
#05312:0000130000000013
#05315:13
#05316:0013
#0541b:00131300
#05416:0000001300000000
#00418:1300130000000013
#00415:0013000013000000
#0041b:0000001300002300
#00315:1300000000130000
#0031b:0000130000000013
#00312:0000001300002300
#00318:0013
#03415:0000001300000013
#0341b:13
#03412:0013000000000000
#03418:00132300
#03518:0000000000000013
#0351b:1313
#03512:0000000000130000
#03515:0000001300001300
#03718:2300000013000013
#03715:0000130000130000
#0371b:0000001300000000
#03712:00000013
#03818:0000001300000013
#03812:13
#0381b:0013000000000000
#03815:00131300
#04118:2300001300002300
#0411b:0000000000130000
#04115:0000000023000013
#04112:00230000
#04110:41
#04412:1313
#04415:0000130000000023
#04418:00000023
#04414:0033003300000000
#03115:53535353000000000000000000000000
#03118:00000000535353530000000000000000
#03112:00000000000000005353535300000000
#0311b:00000000000000000000000053535353
#05616:53
#01258:0063
#0125b:00000063
#01252:6363
#01255:00000063
#0295a:14
#02055:0000000000000013
#02052:5400002400000000
#02056:0024000000000000
#02054:00540000
#04158:13
#04558:13
#0195a:6400002400000000
#01956:0024000000000000
#01958:00640000
#00955:63
#00555:63
#0065b:0063005300000000
#00658:63535300
#00758:53
#00852:0053006300000000
#00855:53636300
#01158:53
#01655:6363
#01652:00630000
#01458:5353
#0145b:00530000
#02456:0054
#02856:0054
#0235b:63
#04052:0053
#04355:13
#04755:63
#04955:23
#04952:0053
#04958:23
#0495b:0063
#0485b:0063
#04852:0063
#05058:00130000
#05055:00130000
#05052:0053
#05152:00530023
#05156:5353
#0525b:00630023
#05258:63
#05257:0063
#05352:0000530000000023
#05355:53
#05356:0053
#0545b:0053
#05656:63
#02752:53
#0355b:53
#03952:63
#03855:0053
#03458:0063
#04258:00630000
#0425b:6363
#04452:5353
#04455:00530000
#01352:13
#01358:13
#02158:13
#02555:13
#03355:13
#03758:13
#005350:13
#005320:0000002300000000
#006380:13333300
#0063b0:0033003300002300
#007380:13
#0073b0:0000002300000000
#008350:13333300
#008320:0033003300002300
#009350:13
#009320:0000002300000000
#010380:00001323
#011380:13
#0113b0:0000002300000000
#012320:13
#012350:00230000
#012380:0013
#0123b0:00000033
#013380:23
#012321:0013
#012351:00000033
#013321:23
#014381:1333
#0143b1:00330023
#014391:0000003300000000
#016351:1333
#016321:00330023
#016341:0000003300000000
#0173b1:13
#017381:00230000
#017381:0013
#0173b1:00000023
#0193a1:1400005400000000
#019361:0054000024000000
#019381:00540000
#020321:1400005400000000
#020361:0054000024000000
#020341:00540000
#022351:00001323
#0233b1:13
#023381:00230000
#024361:0014
#024321:00000024
#026381:00001323
#027321:13
#027351:00230000
#028361:0014
#0293a1:24
#032381:00001323
#034381:0013
#0343b1:00000023
#0353b1:13
#035381:00230000
#036351:00001323
#038351:0013
#038321:00000023
#039321:13
#039351:00230000
#040321:0013
#040351:00000023
#0423b1:1333
#042391:0033003300000000
#042381:00330023
#044321:1333
#044341:0033003300000000
#044351:00330023
#046381:13
#0463b1:00330023
#046391:0000003300000000
#046371:0033
#046360:00130023
#046340:0000003300000000
#046320:0033
#047350:13
#047320:00230000
#048320:0013
#049350:53
#049320:0053
#050350:00230000
#0483b1:0013
#049381:53
#0493b1:0053
#050381:00230000
#050321:0013
#051361:3333
#051321:00330053
#052351:23
#052380:13
#0523b0:00330053
#052370:0033
#053380:23
#053351:13
#053321:0000330000000053
#053361:0033
#054361:00230000
#0543b1:0013
#054381:0000000000000023
#030950:0000000000130000
#030920:00000023
#031950:13230000
#031981:00132300
#031920:00001323
#0319b1:00000013
#0329b1:23
#032951:00130000
#032921:0000002300000000
#055921:00000013
#055941:00000000000000000000000000530000
#055951:0000000000000053
#056961:53
#056921:00000022
