This file was generated by Ched 2.7.0.0.
#TITLE ""
#ARTIST ""
#DESIGNER ""
#DIFFICULTY 0
#PLAYLEVEL
#SONGID ""
#WAVE ""
#WAVEOFFSET 0
#JACKET ""
#REQUEST "ticks_per_beat 480"
#00002: 4
#BPM01: 102
#BPM02: 91
#BPM03: 127
#BPM04: 128
#BPM05: 124
#BPM06: 90
#BPM07: 112
#BPM08: 100
#00008: 01
#02808: 00020000
#02908: 03
#03008: 04
#05508: 0500000700000806
#TIL00: "56'1440:1, 56'0:0.9, 55'0:0.95"
#VOLUME: ""
#HISPEED 00
#MEASUREHS 00
#0271f:11
#02717:1300000000130000
#02716:00001300000000000000000000000014
#02712:1300000013130000
#0271b:00000013130000001300000000000000
#02715:0000001300002600
#02718:00000000000000130000000000000000
#0271a:0000000000000014
#05012:00000000000000001300001300001300
#0501b:0013
#05016:00000000000000000000000013000013
#05412:00131300
#0541b:0013230000000000
#05415:13001300001300130000000000000000
#05418:0000001300000000
#05416:0000000000000012
#03812:00131300
#0381b:13000000000000001300130023000013
#03816:0000000000130000
#03818:00001300000000130000000000001300
#03815:00000013000013000000000000130000
#03815:00000013000000000000000000000000
#04516:0000001200000012
#04518:0000000000120000
#0451b:23230023
#04512:2323
#04616:0000000000130000
#04617:0013000000000000
#0461b:0000130013000013
#04612:23130023
#04615:0000001300000000
#04618:0000001300000000
#04614:0000000000000013
#04312:13000023
#04317:00000013
#04316:0000001313000013
#0431a:14
#0431b:00000013000000000000130000000000
#03916:1313
#0391b:0000131313130000
#03914:0000001300000000
#03912:00130023
#03918:00000013000000000000130013002300
#03915:0000000000000013
#04412:000000130013000000230000
#0441b:131300
#04414:000000000000001300130013000000130000000000230000
#04416:001300
#04419:000000130000001300130013000000000000000000230000
#04417:000000230013000000000000
#03712:1300001300002300
#03718:00000000000000000000000000130013
#0371b:00000013130000000000000000000000
#03717:00000000000000130000000000000000
#03715:0000000000000013
#0371a:24
#03618:00002300001300130000000000130000
#0361b:2300130023132300
#03615:00130013000023000000000000001300
#03612:13231300
#03616:0000000000130000
#03514:0013001300130013
#03516:00130000
#03512:1313
#03519:0013001300130013
#0351b:00130000
#03517:1313
#02518:00000000000000001300130000130013
#02512:24000013000013000000130013000000
#0251b:1300001300001300
#02515:00000000000000130000000000001300
#02517:00130000
#0231b:00000000000013000013000013000013
#02318:2211141315131400000000000000000000000000130000000000000013000000
#02315:0000001300130000000000001300000000000000000013000000130000000000
#02312:00001313
#02314:00140014000000000000000000000000
#02313:0015000000000000
#02317:0011000000000000000000000000000000000000000000000000000000000000
#02316:22
#02617:0013000013000000
#02612:00000013000000001300000013000000
#0261b:1300131300130000
#02616:00000000000000130000130000000000
#02615:0000000000000013
#02610:41
#0261a:000053
#02618:00000053
#02619:000000000000000000000000000000000053000000000000
#02218:00000013000000130000130000001300
#02212:13130000
#02215:00001300000013000000130000000013
#0241b:0000000000131300
#02415:00000000000000000000000000130013
#02418:0023002300000013
#02417:0023
#02412:23230000
#0211b:00000013000013000000130013000000
#02115:00000000000000001300130000130013
#02112:1300001300001300
#02118:00000000000000130000000000001300
#02116:00130000
#0211a:24
#01112:0013000013000000
#01116:13000013
#01117:0013000000000000
#0111b:13
#00619:0000000000000013
#0061b:0013001300130000
#00616:0013001300000000
#00612:13130013
#00617:13131300
#00614:0000000000000013
#05518:0000000000000000000000001200000000000000000000000012000000000000
#0551a:00000000000000001200000000120000
#05516:00120012
#0551c:0000220000120000
#05514:0012000000000000
#05512:12
#05317:0000131300130000
#0531b:13231313
#05316:00000013
#05312:0013001300130000
#05318:00000000000000000000000000000013
#05212:00231300
#05217:00000000000000000000000013000013
#0521b:00000000130000002300001300001300
#05218:13001300001300130000000000000000
#05215:00130000000013000000000000000000
#05116:0000131300130000
#05112:13231313
#05117:00000013
#0511b:0013001300130000
#05115:00000000000000000000000000000013
#04919:000000000000000000000000000000000000000000000000001400140014001400140014001400140014000000000000
#0491a:000000000000141414141400
#04918:140000000000240000000000001400140014001400000000
#04917:0015001500000000
#04912:140000140000141414141400
#04913:000000000000000000000000000000000000000000000000001400140014001400140014001400140014000000000000
#04914:000000000000000000000000001400140014001400000000
#04910:41
#04818:00000016
#0481b:13
#04816:2523002500000000
#04819:0025230000000000
#04813:0000002300000000
#04817:0023
#04812:0025
#04814:00250000
#04714:0000001300130013
#0471b:1313
#04717:0000130000000025
#04716:1313
#04712:00000025
#04212:131300
#04215:00000000000000000000000000130013
#04219:000000000000001300130013000000130000000000000000
#0421b:000000130013000000230000
#04217:001300
#04214:000000130000001300130013000000000000000000000000
#04216:000000230013000000000000
#04218:0000000000000013
#04112:24000013230000000000130000000000
#04117:0000001323000013
#0411b:23000023
#04116:00000023
#04110:41
#03417:0000000000130000
#03415:00001300230000130000000000001300
#03412:1300000013132300
#0341b:23132300
#03418:00000013000013000000000000130000
#03418:00000013000000000000000000000000
#03212:0013000013000000
#03212:0013
#03218:000000000000000000000000000000000000000000000000000000000000000000000000000000000000000000000000000000230000000000000000000000001300000000000000000000000000000000000000000000000000000000000000130000000000000000000000000000000000000000000000000000000000000000000000000000000000000000000000000000000000000000000000000000000000000000000000000000000000000000000000000000000000000000000000
#0321b:0013001300001300
#03215:000000000000001300000000000000000000000000000000
#03219:13
#03217:0000000000000013
#03019:0000000000000013
#03012:13130013
#03018:000000130000000000000000000000000000000000000000130000000000000013000000000000000000000000000000
#03015:000000130000000000130000000000230013000000000000
#0301b:13130000
#03014:0000000000000013
#0291b:13000000130000001300001300000000
#02912:64000013000000001300000013000000
#02915:00000000000000130000000000000013
#02918:0000001300000013
#0201b:1300001300130000
#02019:00130000
#02017:0013000000130000
#02012:13000013130000001300000000001400
#02016:00000000000013000000000000140014
#0201a:00000014
#02010:41
#01912:1300001300001300
#01914:00130000
#01916:0013000000131313
#0191b:13000013130000001300000000001300
#01917:0000001300000000
#01612:1300000000131300
#01617:0000000000130000
#0161b:1313
#01616:0013000000000000
#01618:00000000000000000000000000130013
#01615:0000000000000013
#0151b:2300000000130013
#01512:23001313
#01517:000000000013000000000000000000000000130000000000
#0151a:001300000000
#01516:0013000000130013
#01212:1300000000141414
#0121c:0000000000120000
#01218:0012
#01217:00000013
#0121b:0000000000000013
#00912:13000013
#00916:00000013130000000000000000000000
#0091b:00000013000000000000000000000000
#00917:1313
#00914:0000000000130000
#00919:0000000000000013
#00814:0000000000000013
#00812:0023002300130000
#00817:0013001300000000
#0081b:23130013
#00819:0000000000000013
#00816:23232300
#0071b:00000013130000001300130000000000
#00712:1300000000001313
#00716:00000013000000000000000000000000
#00717:1300001300000000
#00215:0000000000130000
#00218:12121222
#00216:0000001200000000
#0021a:0012000000000012
#00214:000000120000120053000000
#00212:1200001200005300
#00213:000000000000000000000000000000000053000000000000
#00418:0000001200000012
#00416:12121222
#00414:0012000000000000
#0041c:1200001200000000
#0041a:00120000
#0031c:00000012000000001200000000000000
#00312:12000012
#00316:00121200
#0031a:12
#00314:0000001200120012
#00318:00000022
#00112:00000012000000001200000000000000
#0011c:12000012
#00118:00121200
#00114:12
#0011a:0000001200120012
#00116:00000022
#0401b:1300002313002300
#04015:2300231300000013
#04012:0013000023000000
#04018:00002300130000000000000000130013
#05618:12
#05612:00220000
#05616:00520000
#0331b:1300001300002300
#03315:00000000000000000000000000130013
#03312:24000013130000000000000000000000
#03316:00000000000000130000000000000000
#03318:0000000000000013
#0331f:21
#03310:0041
#02812:14141400
#0281a:14141400
#02816:0014001400000000
#02815:00000000000000000000000000000000000000000000000000000000000000000000000000000000000000000000000000000000000000000000000000000053
#02817:0000000000000000000000000000000000000000000000000000000000000052
#01812:13000013130000000000000000000000
#0181b:1300000000131300
#01815:00000000000000000000000000130013
#01818:0000000000000013
#01817:00130000
#01816:0013
#01814:0000001300000000
#0171b:13000013130000000000000000000000
#01712:1300000000131300
#01717:0000000013000013
#01716:00130000
#01719:0000001300000000
#0141b:2300000000131300
#01412:13000013000000000000000000000000
#01415:00000000000000000000000000130013
#01418:0000000000000013
#01416:0023
#0131b:00000013000000000000130013000000
#01312:1400000000130000
#01316:24000013
#01314:0000000000000013
#01317:0013
#01310:41
#01014:0000130000000013
#01016:0000001313000000
#01019:0000000000000013
#0101b:0013
#01012:0013000000000000
#00512:00000013130000001300130000000000
#0051b:1300000000001313
#00517:00000013000000000000000000000000
#00516:1300001300000000
#03116:00002313000000000000000000002313
#0311b:23130000000000000000000023130000
#03114:00000000000000000000231300000000
#03117:00000000000000002313000000000000
#03112:00000000000023130000000000000000
#03119:00000000231300000000000000000000
#00019:0000000000000012
#00016:00000012
#0465b:00535343
#04652:53530000
#04656:0000000000230000
#04657:0023000000000000
#04655:0000005300000000
#04658:0000006300000000
#03556:00230013
#0355b:00230013
#03554:0053005300530000
#03552:2323
#03559:0053005300530000
#03557:2323
#01257:13000063
#0125c:0000000000220000
#01258:0052
#0125b:0000000000000023
#01252:53
#05058:00120000
#05056:00120000
#0505b:0063
#04757:00630043
#04754:0000000000000033
#0475b:6363
#04756:63
#04456:000023130000
#04457:000000230023000000000000
#04452:000000230023000000000000
#04454:000000000000006300630063000000000000000000000000
#04459:000000000000006300630063000000000000000000000000
#0445b:002300
#0085b:63531300
#00856:0063
#00852:0000000000230000
#00857:0063006300000000
#04257:000023130000
#04256:000000230023000000000000
#04259:000000000000005300530053000000000000000000000000
#0425b:000000230023000000000000
#04254:000000000000005300530053000000000000000000000000
#04252:002300
#0225b:00000043
#02252:00000033
#02258:0000000000230000
#02255:0000000000230000
#00652:53631300
#0065b:0000000000230000
#00656:0053005300000000
#00657:0063
#02952:3463
#0295b:63
#0455b:43630063
#04552:5353
#04856:0033000000000000
#04859:00430000
#04853:0000003300000000
#04857:0043
#04852:0065
#04858:00000026
#0485b:43
#0375a:44
#03752:23
#0345b:0053
#03457:0000000000230000
#02755:00000016
#02757:0000000000230000
#02756:0023000000000000
#02752:53
#0275b:0063
#02552:34
#0255b:53
#0525b:0013
#05252:0053
#04156:00000053
#04157:0053
#0415b:53
#04152:34
#02457:0063
#0215a:44
#02152:63
#01356:44
#01352:54
#01456:0053
#0145b:53
#04052:0033000053000000
#0405b:1343
#04055:0000003300000000
#04058:00430000
#03352:34
#0335b:23
#05452:0013
#03852:0063
#03856:0000000000230000
#04352:63
#04357:00000063
#04356:0063
#03956:53
#03955:0000000000000013
#03958:00000013
#01152:0023000053000000
#01156:63000053
#01157:0023000000000000
#0115b:63
#05357:0000630000530000
#0535b:53005353
#05356:00000063
#05352:0000002300630000
#05156:0000530000630000
#05152:63006363
#05157:00000053
#0515b:0000002300530000
#04959:000000000000000000000000000000000000000000000000006400540064005400640054006400540064000000000000
#0495a:000000000000242424242400
#04958:000000000000000000000000002400240024002400000000
#04957:0025002500000000
#04952:640000540000242424242400
#04953:000000000000000000000000000000000000000000000000005400640054006400540064005400640054000000000000
#04954:000000000000000000000000002400240024002400000000
#03656:0000000000230000
#03652:0053
#02358:0061646365636400000000000000000000000000000000000000000000000000
#02354:00540054000000000000000000000000
#02353:0055000000000000
#02355:0000005300530000000000000000000000000000000000000000000000000000
#02357:0051000000000000000000000000000000000000000000000000000000000000
#0205b:6300002300000000
#02059:00630000
#02057:0023000000000000
#02052:3300000000000034
#01952:5300002300000000
#01954:00530000
#01956:0023000000000000
#0195b:43
#01652:63
#01657:0000000000230000
#0165b:0053
#01656:0023000000000000
#00952:00000063
#0095b:00000023000000000000000000000000
#00957:5363
#00756:00000023000000000000000000000000
#00752:53
#05658:62
#02852:00346400
#0285a:4444
#01056:0063
#0105b:0063
#00557:00000023000000000000000000000000
#0055b:63
#03252:0063
#01857:00230000
#0185b:63
#01852:33
#01856:0053
#01756:00230000
#01752:53
#0175b:43
#01757:0063
#0043a0:00001222
#0053b0:1300002300000000
#005370:00000053000000000000000000000000
#005370:0000000013230000
#005360:0000000000001323
#006320:13332300
#006360:0033003300000000
#006371:00001323
#0063b1:0000000000530000
#007321:1300002300000000
#007361:00000053000000000000000000000000
#007361:0000000013230000
#007371:0000000000001323
#0083b1:13332300
#008371:0033003300000000
#008360:00001323
#008320:0000000000530000
#009370:1300002300000000
#0093b0:00000053000000000000000000000000
#009321:0000001323000000
#009370:0013
#0093b0:00000023
#009321:00000013
#010361:23
#0103b0:1333
#010370:00000023
#010361:0013
#010321:00000023
#011361:13230000
#011321:0053000000000000
#0113b0:13230000
#011370:0053000000000000
#0113b0:0000001323000000
#011321:0013
#011361:0000000000230000
#011390:0000000000132300
#011361:00000013
#011321:0000000000000023
#011370:0000000000000013
#012370:23
#012321:13
#012371:0000002200000000
#012381:0012
#0123c1:0000000000520000
#012371:00000033
#0123b1:0000000000000053
#013361:24
#013320:14
#013370:00240000
#0133b1:00130000
#013381:0000002300000000
#013350:0000001300000000
#013320:0023
#0143b0:13
#014370:00230000
#014321:00130000
#014351:0000002300000000
#014380:0000001300000000
#0143b0:0023
#014361:0013
#014321:00000023
#015341:0000132300000000
#015370:0000001323000000
#016320:13230000
#016360:0053000000000000
#0163b1:00130000
#016381:0000002300000000
#016350:0000001300000000
#016320:0023
#0163b1:00001323
#016371:0000000000530000
#017321:1323
#017361:00530000
#017370:0013
#0173b0:00000023
#0183b0:1323
#018370:00530000
#018361:0013
#018321:00000023
#019321:1300005300000000
#019361:0053000023000000
#019341:00530000
#0203b1:1300005300000000
#020371:0053000023000000
#020391:00530000
#021321:13
#021361:00000023000000000000000000000000
#0223b1:13
#022381:0023000000000000
#022381:00130000
#0223b1:0000002300000000
#022381:0000000013530000
#0223b1:00000023
#022350:0000000013530000
#022320:00000023
#023380:1251545355535400210000000000000000000000000000000000000000000000
#023361:12
#023371:0051000000000000210000000000000000000000000000000000000000000000
#023341:00540054000000000000000000000000
#023351:0000005300530000000000000000000000000000000000000000000000000000
#023331:0055000000000000
#024371:0013
#024321:00000023
#0253b1:13
#025371:00000023000000000000000000000000
#026321:1323000000000000
#026361:0000132300000000
#027321:13230000
#027361:0053000000000000
#0273b1:00001323
#027371:0000000000530000
#028321:0014
#028371:0000000000000000000000000000000000000000000000000000000000000022
#0293b1:13
#029371:00000023000000000000000000000000
#029321:0013
#029361:00000000000000000000002300000000
#032321:0013
#032371:00000023
#0333b1:13
#033361:00230000
#0333b1:0013
#033381:0000000000230000
#033350:0000000000130000
#033320:00000023
#0343b0:13
#034380:0023000000000000
#034350:00130000
#034320:0000002300000000
#0343b0:00001323
#034370:0000000000530000
#035320:1333
#035340:0053003300330000
#035360:00330023
#035371:1333
#035391:0053003300330000
#0353b1:00330023
#036321:00001323
#036361:0000000000530000
#037321:13
#037371:00230000
#037321:0013
#037351:0000000000230000
#037380:0000000000130000
#0373b0:00000023
#038320:13
#038350:0023000000000000
#038380:00130000
#0383b0:0000002300000000
#038320:00001323
#038360:0000000000530000
#039360:13
#039320:00000023000000000000000000000000
#040320:0013
#040360:00000023
#0413b0:13
#041370:00230000
#041321:00132300
#041370:0013
#0413b0:0000000000230000
#041360:00000013
#041320:0000000000000023
#0423b0:130000330053000000000000
#042390:000000000000005300330053000000000000000000000000
#042370:000053230000
#042361:000000130053000000000000
#042341:000000000000005300330053000000000000000000000000
#042321:000000005300330000230000
#043321:13
#043361:00230000
#0433b0:00132300
#043361:0013
#043321:0000000000230000
#043371:00000013
#0433b1:0000000000000023
#044321:130000330053000000000000
#044341:000000000000005300330053000000000000000000000000
#044361:000053230000
#044370:000000130053000000000000
#044390:000000000000005300330053000000000000000000000000
#0443b0:000000005300330000230000
#045320:13
#045360:00230000
#0453b1:00130000
#045371:0023
#045320:0013
#045360:00000023
#0453b1:00000013
#046371:23
#046320:13332300
#046370:0053000000000000
#046380:0000003300000000
#0463b1:00133323
#046351:0000003300000000
#046361:0000000000530000
#047361:13
#047321:00230000
#0473b0:1333
#047370:00330023
#048320:0015
#048380:00000056
#049320:340000340000345454545400
#049370:0055005500000000
#049330:000000000000000000000000000000000000000000000000005400540054005400540054005400540054000000000000
#049340:000000000000000000000000005400540054005400540000
#050360:00220000
#0493a1:000000000000145454545400
#049391:000000000000000000000000000000000000000000000000005400540054005400540054005400540054000000000000
#049381:000000000000000000000000005400540054005400540000
#050381:00220000
#0503b1:0013
#050361:00000000000000000000002300000000
#051321:13
#051361:0023000000000000
#051361:00132300
#0513b1:0000005300000000
#051320:00001333
#051360:0000000000330023
#0513b1:0000000000130023
#051371:00000033
#052321:0013
#052371:00000000000000000000002300000000
#0533b1:13
#053371:0023000000000000
#053371:00132300
#053321:0000005300000000
#0533b0:00001333
#053370:0000000000330023
#053321:0000000000130023
#053361:00000033
#054381:0000000013000022
#055341:000000000000000000000000000000000000000000000000000000000000000000000000000000000012000000000000
#056341:22
#056380:12
#056360:00220000
#002950:0000000000130000
#002920:00000023
#024920:13
#024950:00230000000000000000000000000000
#024980:0013000000000000
#0249b0:00000023000000000000000000000000
#024920:00130000
#024950:00000000002300000000000000000000
#024980:0000001300000000
#0249b0:00000000000000230000000000000000
#0269b0:0000000000130000
#026980:00000023
#056960:00120000
#0569d0:00000021
