This file was generated by Ched 2.7.0.0.
#TITLE ""
#ARTIST ""
#DESIGNER ""
#DIFFICULTY 0
#PLAYLEVEL
#SONGID ""
#WAVE ""
#WAVEOFFSET 0
#JACKET ""
#REQUEST "ticks_per_beat 480"
#00002: 4
#BPM01: 102
#BPM02: 91
#BPM03: 127
#BPM04: 128
#BPM05: 124
#BPM06: 90
#BPM07: 112
#BPM08: 100
#00008: 01
#02808: 00020000
#02908: 03
#03008: 04
#05508: 0500000700000806
#TIL00: ""
#VOLUME: ""
#HISPEED 00
#MEASUREHS 00
#0051a:14
#00514:00140000
#00518:0014
#00512:00000014
#00712:14
#00718:00140000
#00714:0014
#0071a:00000014
#00918:14
#00914:00140000
#0091a:0014
#00912:00000014
#01118:0014
#01114:00000014
#01314:00140000
#01318:0014
#01312:00000014
#0131a:24
#01310:41
#0141a:14
#01414:00140000
#01418:0014
#01518:00140000
#01514:0014
#0151a:00000014
#01512:14
#01612:14
#01618:00140000
#01614:0014
#01712:00140000
#01718:0014
#01714:00000014
#0171a:14
#0181a:14
#01812:00140000
#01818:0014
#0191a:00000014
#01912:14
#01914:00140000
#0201a:14
#02018:00140000
#02012:00000014
#02010:41
#0211a:14000014
#02112:00140000
#02116:0014
#02218:00140000
#02214:14
#0231a:14
#02314:00140000
#02318:0014
#02312:00000014
#02512:14000014
#0251a:00140000
#02516:0014
#02614:00140000
#02618:14
#02610:41
#02712:14
#02718:00140000
#02714:0014
#0271a:00000014
#0271f:11
#02918:00140000
#02912:0014
#0291a:00000014
#03014:14
#03018:00140000
#03012:0014
#0301a:00000014
#03314:00140000
#03318:0014
#03312:00000014
#0331a:24
#0331f:21
#03310:0041
#03714:00140000
#0371a:0014
#03712:00000014
#03718:14
#04018:1414
#0401a:00140000
#04012:2424
#04014:00240000
#03115:0014
#03112:1434000000000034
#03114:0000003400340000
#03113:00340034
#0321a:00140000
#03214:00140000
#0341a:1414
#03418:00140000
#03419:0034003400000000
#03818:1414
#0381a:00140000
#03819:0034003400000000
#03614:00140000
#03612:2414
#03613:0034003400000000
#04114:00140000
#04118:0014
#04112:00000014
#0411a:24
#04110:41
#04218:14
#04214:00140000
#04318:00140000
#04314:0014
#0431a:00000014
#04312:14
#04414:14
#04418:00140000
#04512:00140000
#04518:0014
#04514:00000014
#0451a:24
#0461a:14
#04612:00140000
#04618:0014
#04914:00140000
#04918:00140000
#04910:41
#0501a:0014
#05112:14
#05118:0014
#05114:00000014
#0521a:14
#05212:00140000
#05218:0014
#05314:14
#0531a:0014
#05312:00000014
#05418:14
#05414:00140000
#0541a:0014
#05512:14
#0551a:0014
#05519:00000034
#0481a:14141400
#04812:24242400
#0471a:00140000
#04714:0014
#04718:00000014
#04712:14
#0011a:00000024
#00214:00000024
#00318:00000024
#00412:00000024
#01212:0024
#01216:00000024
#0241a:24
#02414:00240000
#02418:0024
#02812:24
#02818:00240000
#02814:0024
#03912:24
#03914:0024
#03512:24
#03518:00240000
#03514:0024
#0351a:00000024
#0135a:14
#01458:0054
#01654:0064
#01858:0054
#01952:54
#01954:00240000
#0205a:64
#02058:00240000
#0215a:14
#02552:14
#02954:14
#03155:0054
#03152:54
#0345a:5454
#03458:00540000
#03858:6464
#0385a:00640000
#03654:00640000
#03652:6464
#04052:0014
#04058:0014
#04954:00240000
#04958:00240000
#05052:14
#0505a:14
#04852:0054
#0485a:0064
#0555a:0064
#04658:0014
#0013a0:1424
#002340:1424
#003380:1424
#004320:1424
#0063a0:1434
#006390:0034003400000000
#006380:00340024
#008320:1434
#008330:0034003400000000
#008340:00340024
#010380:1434
#010390:0034003400000000
#0103a0:00340024
#011340:14
#011320:00240000
#012380:14
#0123a0:00240000
#014380:0014
#0143a0:00000024
#016340:0014
#016320:00000024
#018380:0014
#0183a0:00000024
#019320:1424
#019340:00540000
#0203a0:1424
#020380:00540000
#022320:00001424
#024380:00001424
#0263a0:00001424
#028340:0014
#029340:24
#031320:1434000000000034
#031330:00340034
#031340:0000003400340000
#031350:0034
#032320:24
#032320:00001424
#032381:00001424
#0343a1:1434
#034391:0034003400000000
#034381:00340024
#036321:1434
#036331:0034003400000000
#036341:00340024
#038381:1434
#038391:0034003400000000
#0383a1:00340024
#039321:14240000
#039380:14240000
#039340:00001424
#0393a1:00001424
#0423a1:0014
#042381:00000024
#044321:0014
#044341:00000024
#048321:0014
#049341:00540000
#050321:24
#0483a0:0014
#049380:00540000
#0503a0:24
#0553a0:0014
#055390:00000034
#056380:34000024
