This file was generated by Ched 2.7.0.0.
#TITLE ""
#ARTIST ""
#DESIGNER ""
#DIFFICULTY 0
#PLAYLEVEL
#SONGID ""
#WAVE ""
#WAVEOFFSET 0
#JACKET ""
#REQUEST "ticks_per_beat 480"
#00002: 4
#BPM01: 240
#00008: 01
#TIL00: ""
#VOLUME: ""
#HISPEED 00
#MEASUREHS 00
#00118:14
#00214:14
#00618:14
#00714:14
#00512:14
#0081a:14
#01018:14
#01114:14
#00912:14
#0121a:14
#01312:14
#01310:41
#01412:14
#01618:14
#01518:14
#01714:14
#01814:14
#0201a:14
#0191a:14
#02112:14
#02218:14
#02312:14
#02418:14
#02514:14
#02510:41
#0261a:14
#02714:14
#0281a:14
#03718:0016
#03712:26
#03710:41
#03918:16
#03912:0016
#04118:0016
#04112:26
#04318:16
#04312:0016
#04512:2616
#04718:1616
#04912:1616
#05118:1616
#05414:14
#05518:14
#05612:14
#0571a:14
#0571f:11
#05814:14
#05918:14
#0641a:14
#06614:14
#06718:14
#06814:14
#06818:0014
#06914:14
#07012:0016
#07018:26
#0701f:21
#07212:16
#07218:0016
#07210:41
#07412:0016
#07418:26
#07612:16
#07618:0016
#07818:2616
#08012:1616
#08218:1616
#08412:1616
#08410:41
#08718:14
#08814:14
#0891a:14
#09012:14
#09118:14
#09214:14
#0931a:14
#09619:00140000
#05310:41
#0033a0:1434343434343434
#0043a0:24
#029320:1434
#030320:24
#031380:1434
#032380:24
#033340:1434
#034340:24
#0353a0:1434
#0363a0:24
#038320:1626
#040380:1626
#042320:1626
#044380:1626
#046320:1626
#048380:1626
#050320:1626
#052380:16003636
#053380:26
#060320:14
#062320:24
#071380:1626
#073320:1626
#075380:1626
#077320:1626
#079380:1626
#081320:1626
#083380:1626
#085320:16003636
#086320:26
#094320:14
#094330:00340000
#094340:0034
#094350:00000034
#095340:34
#095330:00340000
#095320:0000000034340024
