This file was generated by Ched 2.7.0.0.
#TITLE ""
#ARTIST ""
#DESIGNER ""
#DIFFICULTY 0
#PLAYLEVEL
#SONGID ""
#WAVE ""
#WAVEOFFSET 0
#JACKET ""
#REQUEST "ticks_per_beat 480"
#00002: 4
#BPM01: 240
#00008: 01
#TIL00: ""
#VOLUME: ""
#HISPEED 00
#MEASUREHS 00
#0011b:13131300
#00115:0000000000001313
#00112:13131300
#0021b:13130023
#00218:0000000013130000
#00212:13130023
#00417:00130000
#00414:0013
#00412:00230023
#0041b:23000023
#00419:0023
#00518:13001313
#0051b:0000130000000013
#00512:0000130000000013
#00515:0013000000130000
#0061b:0013000000000000
#00618:0000130000131300
#00615:00000000000013000000001300000000
#00612:0013
#00712:13
#00715:0000130013000013
#0071b:00130013
#00718:1300000000130000
#0081b:0013000013000000
#00815:0000130000131300
#00818:00000000000013000000001300001300
#01215:00130013
#01218:0000001300000013
#01212:0013000000000000
#01312:13000013
#0131b:00131300
#01316:0000001300000000
#01317:0000000000000013
#01310:41
#0141b:0013000000000000
#01418:00130013
#01415:0000001300000013
#01412:0000000000130000
#0151b:1300000000130000
#01515:0013000000000013
#01518:00130013
#01512:0000001300000000
#01618:1300000000000013
#01612:0013000000000000
#0161b:0000130000130000
#01615:0000001300001300
#01718:00130013
#01712:0000001300000013
#0171b:0013
#01715:0000000000130000
#01818:0013000000000000
#01815:00130000
#0181b:0000001300000013
#01812:0000000000130000
#01816:0000000000000013
#01817:0000000000130000
#01912:00130013
#01915:0000001300000000
#01918:0000000013000013
#0191b:0000000000130000
#02015:1300001300000013
#0201b:0013000013000000
#02018:00130013
#02012:0013
#0211b:13
#02112:00130000
#02115:0000001300000000
#02118:0013
#02116:0000000000001313
#0221b:0000001300000000
#02212:0013000000130000
#02215:00000013
#02218:0000000000000013
#02214:00330000
#02315:1300001300000013
#02312:0013000000000000
#02318:00130013
#0231b:0000000000130000
#02412:13
#0241b:0013000000000000
#02418:00130013
#02415:0000001300000013
#0251b:1300000000130000
#02518:0000131300000013
#02515:0013
#02512:13000013
#02510:41
#02612:0013000000000000
#02618:00130000
#02615:0000001300001300
#0261b:0013
#02715:0013000000130000
#02718:00131300
#02712:0000001300000013
#0271b:13000013
#0281b:0013000013000000
#02818:0000130000000013
#02815:0000001300000000
#02812:0013
#02918:13
#0291a:00130000
#0291b:0000000013131300
#02915:13
#03612:0013130000000000
#0361b:0013130000000000
#03717:0000000013130000
#0371b:0000230000000013
#03716:00130000
#03712:2300000023230000
#03710:41
#03815:1313
#03818:0013001300000000
#03812:0000130000000013
#0381b:0000000000130000
#03915:13130013
#03918:0013000000000000
#03912:0000001300000000
#0391b:0000000013000013
#04012:0013000000130000
#04015:00130000
#04018:0000001300000000
#0401b:0000000013000013
#04115:13
#04118:0013000000000000
#04112:0000130000000013
#0411b:0000000013130000
#04116:0000000023230000
#04218:1300001300000013
#04215:0013000013000000
#0421b:0000130000130000
#04212:0000000000130023
#04315:13000013
#04318:0000130000130000
#0431b:2313
#04312:0000230000000013
#04418:0013000000130000
#04412:00130013
#0441b:0000001300000000
#04415:00000000000000001300000000000053
#04413:00000000000000000000000000530000
#04414:0000000000000053
#05118:0000001300130000
#05115:13001313
#05112:0000000000000013
#0511b:0000130000000013
#05212:001313130000
#05215:00000013
#0521b:0000000000000013
#05218:0000000000130000
#05315:0013000000001300
#05318:0000130000130000
#0531b:0000001300000013
#05312:2300000000000013
#05310:41
#05412:0013000013000000
#0541b:0000001300000013
#05415:0000000000130000
#05418:00000013
#05417:0013000000000000
#05516:0000001300000000
#05512:0023000000130000
#05518:00000013
#05515:2300000000000013
#0551b:0000001300000000
#05618:13001300000000000054000000000000
#0561b:00130000
#05615:00140014
#0561a:0014
#05614:0000000000000000005400000000000000000000000000000054000000000000
#05613:00000000005400000000000000540000
#05612:0000000000000000000000540000000000000000000000000000005400000000
#05619:0000000000000000000000000000000000540000000000000000000000000000
#05617:0000000000000000000000000000000000000054000000000000000000000000
#05716:0000001300000000
#05712:0023000000130000
#05715:23000013
#05718:0023000000000013
#0571b:2300001300000000
#0571f:11
#0581b:1300001300130000
#05818:0013000000001300
#05815:0000130000000013
#06018:0013000000000000
#06015:0000130000000014
#06012:0000001300000000
#0601b:13
#0601a:0014
#06016:0000000000140000
#06019:00000014
#06612:13131300
#06618:00000013
#06615:0000000000000013
#06718:13131313
#06715:0013001300000000
#06812:13
#06815:00130013
#06818:0000000013000013
#0681b:13
#06915:13130000
#06918:0013001300000000
#08612:00130000
#0861b:2300000013000013
#08615:00000013
#08618:0000000000130000
#08617:00230000
#08712:0013130000000000
#0871b:0013
#08718:00000000000000000000001300000000
#08715:0000000000131300
#08812:2313
#08816:0000230000001313
#0881b:0000130000001313
#08817:1313
#08912:0013000000000000
#08915:00000000130000001300001300001300
#08918:0000001300131300
#00015:000000000013
#00018:000000131300
#00312:13003300330033333300330033003300
#00915:13001313
#00912:0000130000000013
#0091b:0000130000000013
#00918:0013000000130000
#01012:0013000000000000
#01015:0000130000130000
#01018:00000000000013000000001300000000
#0101b:0013
#0111b:13
#01118:0000130013000013
#01112:00130013
#01115:1300000000130000
#03215:13000013
#03218:0000130000130000
#0321b:0013
#03015:13
#03013:00130000
#03012:0000000013131300
#03018:13
#03118:13
#0311a:00130000
#0311b:0000000013131300
#03115:13
#03312:13
#03313:00130000
#03315:0000000013131300
#0331b:13
#0341b:13
#0341a:00130000
#03418:0000000013131300
#03412:13
#03512:13
#03514:00130000
#03515:00001313
#03518:0000000000130013
#0351b:13
#03519:00130000
#04516:5300000013130000
#04512:0000230000000013
#04517:00130000
#0451b:2300000023230000
#04618:1300000013000013
#04615:0013001300000000
#0461b:00130000
#04612:0000000000130000
#04715:1300001300000000
#04712:0000130000000013
#0471b:0000000000130000
#04718:0013
#04717:0000000000000013
#0481b:0013000000130000
#04818:00130000
#04815:0000001300000000
#04812:0000000013000013
#04918:13000013
#04915:0013000000230000
#0491b:0000130000000013
#04912:0023
#05015:1300001300001300
#05018:0013000013000013
#05012:00130000
#06118:14
#06114:0000000014000000000000000000000000560056000000000056005600000000
#06117:00000000140000000000005600000056
#06113:00000000000014000056000000560000
#06115:0000000016565656
#06116:0000000000000000000000000000000000000000005600560000000000560056
#06212:12120000
#06217:00120000
#06215:56
#0641c:12120000
#06417:12120000
#0701b:0000230000000013
#07016:00130000
#07017:13
#07012:2300000023230000
#0701f:21
#07118:1313
#07115:0013001300000000
#07112:0000130000130013
#0711b:0000000000130000
#0721b:1300000000000013
#07218:0013000013000000
#07215:0000130000130000
#07212:0000001300000000
#07216:0000000000000013
#07210:41
#07312:0013000000000000
#07315:00130000
#07318:0000001300000000
#0731b:0000000013000013
#07316:0000000000140000
#07418:13
#07415:0013000000000000
#07412:0000130000000013
#0741b:00130000
#07416:0000000023230000
#07515:1300000013000013
#07518:0013001300000000
#0751b:0000130000130000
#07512:0000000000130000
#0761b:0013
#07618:2300000000130000
#07615:0013001300001300
#07612:0000130000000013
#07718:0013000013000000
#07712:00130013
#0771b:0000001300000000
#07715:0000000000130000
#07817:00130000
#07812:23232323
#0781b:23
#0791b:13
#07919:00130000
#07912:23232323
#08016:00130000
#0801b:23232323
#08012:23
#08215:13
#08218:0013000000000000
#0821b:00130013
#08217:0013
#08212:00232323
#08418:13
#08415:0013000000000000
#08412:00130013
#08416:0013
#0841b:00232323
#08410:41
#08516:13
#08518:0013000000130000
#08515:00130013
#08512:0000001300000013
#0851b:2313
#09515:0000000013130023
#0951b:0000000013130023
#09516:0014001400000000
#0951a:24
#09512:00240000
#09618:00130000
#09612:00130000
#09416:0000000000000014
#09415:0013000000130000
#0941b:0000001300000000
#09412:23000024
#09418:00232300
#0901b:13130000
#09015:0000000000130000
#09012:2300000013000013
#09018:00000013
#09016:00230000
#09118:0000000000131300
#09115:00000000000000000000001300000000
#09112:0013
#0911b:0013130000000000
#09217:0000230000001313
#09212:0000130000001313
#09216:1313
#0921b:2313
#09318:00000000130000001300001300001300
#09315:0000001300131300
#0931b:0013000000000000
#08112:13
#08114:00130000
#0811b:23232323
#08312:23232323
#00352:53
#00452:00000013
#0045b:00000013
#00552:0000000000000053
#00755:0000000000000053
#0095b:0000000000000063
#01158:0000000000000063
#01352:13
#01552:0000005300000000
#01655:0000001300000000
#01752:0000000000000013
#0185b:0000001300000053
#01857:0000000000530000
#0205b:0013
#02052:0013
#0215b:13
#02156:0000000000000053
#02158:0053
#02252:0023000000000000
#02355:0000005300000000
#02455:0000001300000000
#0265b:0013
#02558:0000000000000053
#0285b:0013
#02852:0013
#02955:53
#03058:63
#03155:53
#03255:00000013
#0335b:23
#03452:23
#0365b:00530000
#03752:13
#0385b:0000000000130000
#0395b:0000000013000063
#04052:0000000000130000
#04152:00130000
#04252:0000000000130000
#0425b:0000000000130000
#0435b:13
#04352:0000130000000053
#04652:0000000000130000
#04752:0000000000000053
#0485b:0000000000130000
#0495b:00130000
#05058:0013
#0455b:13
#05155:53
#0515b:0000000000000053
#0575b:0000005300000000
#0715b:0000000000130000
#07152:0000000000130000
#07258:0013
#0725b:0000000000000063
#07255:0000000000130000
#07356:0000000000140000
#07452:00130000
#0745b:00130000
#07552:0000000000130000
#0755b:0000000000130000
#07652:0000000000000053
#07052:13
#0785b:13
#07752:00000013
#08052:13
#0865b:0000000000000053
#08752:00530000
#0885b:0000000000000053
#0915b:00630000
#09052:0000000000000063
#09252:0000000000000063
#003320:13003300330033333300330033003300
#004350:26
#005320:0000000000000013
#006350:0023000000000000
#007350:0000000000000013
#008320:0023000000000000
#0093b0:0000000000000013
#010380:0023000000000000
#011380:0000000000000013
#0123b0:0023000000000000
#015320:0000001300000000
#015360:0000000000230000
#017320:13230000
#018370:0000000000130000
#0183b0:0000000000000033
#019370:00230000
#021380:0013
#0213b0:00000023
#021360:0000000000000013
#022320:0033000000000000
#022340:00330000
#022360:0000002300000000
#023350:0000001300000000
#023320:0000000000230000
#025380:0000000000000013
#0263b0:0023000000000000
#029350:13
#029320:00000023
#030380:13
#0303b0:00000023
#031350:13
#031320:00000023
#0333b0:13
#033380:00000023
#034320:13
#034350:00000023
#0363b0:00130000
#037370:23
#0393b0:0000000000000013
#040370:0023000000000000
#043320:0000000000000013
#044350:0023000000000000
#047320:0000000000000013
#048360:0023000000000000
#051350:13
#051320:00230000
#0513b0:0000000000000013
#052370:003333230000
#0573b0:0000001300000000
#057370:0000000000230000
#058320:0000001300230000
#059320:13230000
#059381:0000132300000000
#059350:0000001323000000
#0593b1:0000000013230000
#059350:0000000000132300
#059381:0000000000001323
#059320:0000000000000013
#060320:23
#069320:00001323
#0693b1:00001323
#070371:0000000013230000
#0723b1:0000000000000013
#073371:0023000000000000
#0743b1:0000000013230000
#076321:0000000000000013
#077351:0023000000000000
#0783b1:0013
#078391:0000000000330000
#078371:00000023
#079371:0013
#079391:0000000000330000
#0793b1:00000023
#080321:0013
#080341:0000000000330000
#080361:00000023
#081361:0013
#081341:0000000000330000
#081321:00000023
#083371:13
#083391:0033000000000000
#0833b1:00230000
#0833b1:0013
#083391:0000000000330000
#083371:00000023
#0863b1:0000000000000013
#087371:0023000000000000
#087321:00130000
#087361:0023
#0883b1:0000000000000013
#089371:0023000000000000
#090321:0000000000000013
#091361:0023000000000000
#0913b1:00130000
#091371:0023
#092321:0000000000000013
#093361:0023000000000000
#044920:00000013
#045960:23
#056950:00140000
#056920:0000000000000000000000240000000000000000000000000000000000000000
#0569a0:0014
#056970:0000000000000000000000000000000000000024000000000000000000000000
#056950:00000014
#056920:0000000000000000000000000000000000000000000000000000002400000000
