This file was generated by Ched 2.7.0.0.
#TITLE ""
#ARTIST ""
#DESIGNER ""
#DIFFICULTY 0
#PLAYLEVEL
#SONGID ""
#WAVE ""
#WAVEOFFSET 0
#JACKET ""
#REQUEST "ticks_per_beat 480"
#00002: 4
#BPM01: 240
#00008: 01
#TIL00: ""
#VOLUME: ""
#HISPEED 00
#MEASUREHS 00
#00118:1300000013000013
#00115:00130013
#0021b:00130023
#00215:0013
#00218:0000000000130000
#00212:13000023
#00515:1300000000130000
#0051b:0013
#00518:0013000000001300
#00512:0000130000000013
#00715:13000013
#00712:0013
#0071b:0000000000000013
#00718:0000130000130000
#00815:00000000130000000000333300000000
#00818:0000001300000000
#00812:0013
#01218:00130013
#01215:0000001300000013
#0131b:13
#01315:00131300
#01318:0000001300001300
#01312:0000000000000013
#01310:41
#0141b:0013000000000000
#01415:0000130000000013
#01418:0000001300001300
#01412:0000000000130000
#01515:0000000000130013
#01518:00000013
#0151b:1333330000000000
#01612:0000000000130000
#01618:1333330000001300
#01615:0000000000000013
#01712:0000001300000013
#0171b:0013
#01715:0000000000130000
#01718:00000013
#01818:0013000000000000
#01815:0000130000130000
#0181b:0000001300000000
#01812:0000000000000013
#01918:0000001300000013
#01912:0013
#0191b:0000000000130000
#01915:00000013
#0211b:13
#02112:00130000
#02118:0000001300000000
#02115:0013
#0221b:0000001300000000
#02212:0000000000130000
#02218:0013000000001300
#02215:0000130000000013
#0231b:1333330000001300
#02312:0000000000130000
#02315:0000000000000013
#02415:00000013
#02418:1300000000000013
#0241b:0033330000000000
#0251b:00130013
#02515:0000001300000013
#02518:0013
#02512:1300000000130000
#02510:41
#0261b:00000013
#02718:0013000000000000
#02715:00130000
#02712:13
#0271b:0000001300000000
#02815:0013001300000000
#02818:00131300
#02812:0000000000000013
#03618:0013000000000000
#03615:00130000
#03712:2300000000000013
#0371b:00230000
#03715:0023
#03718:0000000000230000
#03710:41
#03818:13
#03815:0013000000000000
#03812:0000000000000013
#0381b:0000133333000000
#03918:1313
#03915:0013000000001300
#0391b:0000130000000013
#03912:0000001300000000
#0401b:0000000000000013
#04012:0013333333000000
#04115:1300000000230000
#04118:0013000023000000
#04112:00130000
#0411b:0000000000000013
#04215:1300000013000023
#04218:0013001300000000
#04212:00130000
#0421b:0000000000130000
#0431b:0013
#04315:0000000000130000
#04318:23000013
#04312:0000230000000013
#04418:00130013
#04415:0000001300000000
#0441b:0013
#04412:0000000000130000
#05118:1300001300000013
#05115:0013
#0511b:0000000000130000
#05112:00130013
#05218:00000013
#05215:0000000000130000
#05212:0000000000000013
#05415:0000001300000000
#0541b:0013000000333333
#05515:0023001300000013
#05512:0000000000130000
#05518:00000013
#0551b:0000001300000000
#0561b:1313000000000000
#05615:0000000000000000540000000000000000000000000000000000005400000000
#05614:0000000000000000005400000000000000000000000000000000540000000000
#05613:0000000000000000000054000000000000000000000000000054000000000000
#05612:0000000000000000000000540000000000000000000000005400000000000000
#0561a:0054
#05619:0000000000000000000000000000000000540000000000000000000000000000
#05618:00000000000000000054000000000000
#05617:0000000000000000000000000000000000000054000000000000000000000000
#05715:0023000000001300
#05718:2300000000000013
#0571b:0000001300000000
#0571f:11
#05812:13
#05818:0013000000000013
#05815:00130013
#06015:0013000000000000
#06018:00130000
#06012:0000001300000000
#0601b:13
#0601a:0000000000343434
#0661b:13
#06618:00130000
#06615:0013
#06612:00000013
#06712:13
#06715:00130000
#0671b:00000013
#06718:0013
#0681b:13
#06818:00130000
#06815:0013
#06812:00000013
#06918:13130000
#06915:0013001300000000
#08612:1313
#08615:00130013
#0861b:0000230000000013
#08618:2300000000130000
#08815:0000230000130013
#08818:13001313
#0881b:00130000
#08812:23
#0891b:00131300
#08915:0000001300000000
#08918:00000000000000000000333300000000
#00312:13003300330033333300330033003300
#00912:0013
#00915:00000013
#0091b:0000130000000013
#00918:0000000000130000
#03518:00130013
#03515:1300000013000013
#03512:00130000
#0351b:0013
#05018:00000013
#05015:0013000000000013
#05012:3300333300000000
#07818:00130013
#0781b:2313
#07812:23232323
#08215:1323
#08218:0013000000002300
#0821b:00131300
#08212:00230013
#09612:00130000
#09618:00130000
#09512:0000001300000000
#09515:0013000000000000
#0951a:0000000014140024
#0951b:23
#09518:00230000
#09412:0000001300000013
#09415:0013000000130000
#0941b:2323
#09418:00230023
#0061b:0013
#00618:00000000000000000000333300000000
#01015:0013
#01012:00000000000000000000335300000000
#01118:13000013
#0111b:0013
#01112:0000000000000013
#01115:0000130000130000
#02012:1333333300000000
#02918:13001313
#02915:0000001300000013
#02912:0000000000130000
#0301b:0013000000130000
#03015:00130000
#03018:0000001300000000
#03012:0013
#03112:0013
#03115:1333333300333300
#03218:0013000000000000
#03215:00130000
#0321b:0000001300000000
#03212:0013
#0331b:1313
#03315:1300000000130000
#03318:00130013
#03312:0000130000000013
#03415:0013
#0341b:0000000000130000
#03412:00000013
#03418:0000001300000013
#0451b:2300000000000013
#04512:00230000
#04518:0023
#04515:0000000000230000
#04615:13
#04618:0013000000000013
#04612:0000133333000000
#04712:1300000000130000
#0471b:0000130000000013
#04715:0000001300000000
#04718:0013
#04812:0000000000000013
#04818:00130000
#0481b:0033003333000000
#04918:1300000000230000
#04915:0013000023000000
#0491b:00130000
#04912:0000000000001333
#05918:00130013
#05915:0000001300130000
#0591b:0013
#05912:0000000000000013
#06218:00130000
#06212:00130000
#06116:0000000014141414
#06115:00000000000000000014000000140000
#06117:00000000000000000000001400000014
#0611a:3434343400000000
#06415:13130000
#0641b:13130000
#07012:2300000000000013
#0701b:00230000
#07015:0023
#07018:0000000000230000
#0701f:21
#07118:13
#07115:0013000000000000
#07112:0000000000000013
#0711b:0000133333000000
#07218:1313
#07215:0013000000130000
#0721b:0000130000000013
#07212:0000001300000000
#07210:41
#07312:0000000000000013
#07318:00130000
#0731b:0033003333000000
#07418:1300000000230000
#07415:0013000023000000
#0741b:00130000
#07412:0000000000000013
#07518:1313
#07515:0013001300000000
#0751b:0000130000000013
#07512:0000000000130000
#07715:00130013
#07718:0000001300000000
#07712:0013
#0771b:0013000000130000
#07618:0013001300000000
#07612:0000130000333300
#07615:2313
#0791b:1313
#07918:00130013
#07912:23232323
#08015:00130013
#08012:2313
#0801b:23232323
#08112:1313
#08115:00130013
#0811b:23232323
#08312:13130023
#0831b:23001313
#08318:00230000
#08315:0023
#08418:1323
#08415:0013000000002300
#08412:00131300
#0841b:00230013
#08410:41
#0851b:13000013
#08515:00130000
#08518:0013
#08512:23
#08715:0013
#08712:00000000000000000000333300000000
#0901b:1313
#09018:00130013
#09012:0000230000000013
#09015:2300000000130000
#09218:0000230000130013
#09215:13001313
#09212:00130000
#0921b:23
#09312:00131300
#09318:0000001300000000
#09315:00000000000000000000333300000000
#09118:0013
#0911b:00000000000000000000333300000000
#00418:00230000
#00415:0023
#0041b:00000023
#05312:00000033
#05310:41
#00352:53
#0045b:00000013
#00552:0000000000000053
#0075b:0000000000000053
#0095b:0000000000000063
#0135b:13
#01752:0000000000000013
#0185b:0000001300000000
#01855:0000000000630000
#01852:0000000000000063
#0215b:13
#02155:0053
#02858:0013
#03752:13
#03958:0013
#04152:00130000
#0425b:0000000000130000
#04358:13
#04352:0000130000000053
#05158:0000000000000053
#0575b:0000005300000000
#0865b:0000000000000053
#08855:0000000000000053
#0065b:0053
#00852:0063
#01055:0053
#01152:0000000000000063
#0155b:53
#01658:63
#0165b:0000001300000000
#02055:0013
#02052:53
#0235b:53
#0245b:0000001300000000
#02458:53
#02555:0000000000000053
#02652:0013
#0275b:0000005300000000
#02958:53
#03155:53
#03152:0053
#03252:0013
#03352:0000000000000053
#03655:00530000
#0385b:00530000
#03858:0000000000130000
#04052:0053000000000000
#04752:0000000000130000
#0475b:0000000000000053
#0495b:00130000
#04952:00000053
#04652:00630000
#04655:0000000000130000
#0455b:13
#04458:00000053
#04858:00230000
#05055:0023000000000000
#06156:0000000054545454
#06155:00000000000000000024000000240000
#06157:00000000000000000000002400000024
#07255:0000000000130000
#0725b:0000000000000053
#0745b:00130000
#07552:0000000000130000
#0715b:00530000
#07158:0000000000130000
#07052:13
#07358:00230000
#07655:0053
#08755:0053
#0895b:0053
#09052:0000000000000063
#09258:0000000000000063
#09158:0063
#09352:0063
#003320:13003300330033333300330033003300
#004350:23
#005320:0000000000000013
#006350:0033230000000000
#0063b0:0013
#006380:00000000000000000000333323000000
#0073b0:0000000000000013
#008380:0023000000000000
#008320:0013
#008350:00000000000000000000333333003300
#009350:23
#0093b0:0000000000000013
#010380:0033230000000000
#010350:0013
#010320:00000000000000000000332300000000
#011320:0000000000000013
#012350:0023000000000000
#0153b0:1333330000000000
#015380:0000002300000000
#016380:1333330000000000
#0163b0:0000002300000000
#0173b0:13230000
#018350:0000000000130000
#018320:0000000000000033
#019350:00230000
#020320:1333333300000000
#020350:0023
#021350:0013
#021320:0000000000003323
#0233b0:1333330000000000
#023380:0000002300000000
#024380:13
#0243b0:0033332300000000
#025350:0000000000000013
#026320:0033333323000000
#0273b0:0000001300000000
#027380:0000000000333323
#029380:13
#0293b0:00230000
#030350:0000000000001333
#031350:3333333300333323
#031320:0033
#033320:0000000000000013
#034350:0023000000000000
#036350:00130000
#037320:23
#0383b0:0000133333000000
#038380:0000000000230000
#040320:0013333333000000
#040350:0000000000230000
#043320:0000000000000013
#044350:0023000000000000
#044380:00000013
#0453b0:23
#046320:0000133333000000
#046350:0000000000230000
#0473b0:0000000000000013
#0483b0:0033003333230000
#048380:00330000
#049320:0000000000001333
#050320:3300333323000000
#050350:0033000000000000
#051380:0000000000000013
#0523b0:003333230000
#0533b0:13
#0533a0:0033000000000000
#053390:00330000
#053380:0000002300000000
#053350:0000000000130000
#053320:0000000000003323
#054380:0013
#0543b0:0000000000333333
#0553b0:23
#0573b0:0000001300000000
#057380:0000000000230000
#0583b0:0000001300230000
#059320:13230000
#0603a0:0000000014343434
#0613a0:3434343400000000
#061360:0000000034545454
#061350:00000000000000000054000000540000
#061370:00000000000000000000005400000054
#062360:24
#069380:00001323
#0713b0:0000133333000000
#071380:0000000000230000
#0723b0:0000000000000013
#0733b0:0033003333230000
#073380:00330000
#076350:0013
#076320:0000000000333323
#0863b0:0000000000000013
#087380:0033230000000000
#087350:0013
#087320:00000000000000000000333323000000
#088350:0000000000000013
#089320:0023000000000000
#0893b0:0013
#089380:00000000000000000000333323000000
#090320:0000000000000013
#091350:0033230000000000
#091380:0013
#0913b0:00000000000000000000333323000000
#092380:0000000000000013
#0933b0:0023000000000000
#093320:0013
#093350:00000000000000000000333323000000
#056950:00140000
#056920:0000000000000000000000240000000000000000000000000000000000000000
#0569a0:0014
#056970:0000000000000000000000000000000000000024000000000000000000000000
#056920:00000014
#056950:0000000000000000000000000000000000000000000000000000002400000000
