This file was generated by Ched 2.7.0.0.
#TITLE ""
#ARTIST ""
#DESIGNER ""
#DIFFICULTY 0
#PLAYLEVEL
#SONGID ""
#WAVE ""
#WAVEOFFSET 0
#JACKET ""
#REQUEST "ticks_per_beat 480"
#00002: 4
#BPM01: 240
#00008: 01
#TIL00: ""
#VOLUME: ""
#HISPEED 00
#MEASUREHS 00
#00112:1400140014001414
#0011a:1400140014001414
#00212:1400140014142400
#0021a:1400140014142400
#00416:24141400
#0041b:1323
#00412:00230024
#0041a:00000024
#00517:1313
#0051b:0000130000001313
#00516:00130013
#00512:1313
#00519:0013000000130000
#00616:00130000
#00612:13001313
#00617:13001353
#0061b:0000130000130000
#00619:00000000000000000000005300000000
#01312:13000013
#0131b:13131313
#01316:0000001414000000
#01315:0000000000000013
#01310:41
#0141b:0013000000130000
#01418:13130013
#01415:0000001300000013
#01412:0000000000130000
#01512:1300000000130000
#01515:0013000000000000
#01518:00130000
#0151b:0000001300000000
#01516:0000001300001414
#0161b:1300000000130000
#01616:0014140000000000
#01612:0000001300000000
#01618:00000013
#01615:0000000000000013
#01716:14140000
#01712:0000001300000013
#0171b:0013
#01718:0000000000130000
#01715:00000013
#01815:0013000000000000
#01818:00130000
#0181b:0000001300000013
#01812:0000000000130000
#01816:0000000000140014
#01912:00130000
#01915:0000001300000013
#01918:00001313
#0191b:0000000000130000
#02012:1300001313000000
#02015:0013000000131300
#02018:00000000130000000000001300001300
#0201b:0000001313000000
#0211b:1300000000130000
#02112:1300130000001313
#02115:0000001300000000
#02118:0013
#02116:0000000000000014
#02217:0000001300000000
#02212:0000001300130000
#02218:00000013
#02215:0000000000000013
#02216:0013000000000000
#02214:00130000
#0221b:0000000000130000
#02312:1300000000130000
#0231b:0000001300000000
#02318:0000130000000013
#02315:0013000000001300
#02316:0000001400000000
#0241b:1300001300131300
#02418:0013000000000000
#02415:00130000
#02412:1300001300000000
#02416:0000000000131300
#02414:0000000000000013
#0251b:1300000000131300
#02517:0000131300000000
#02514:0013
#02512:1300131300000000
#02519:0013000000000000
#02518:0000000000000013
#02516:0000000000131300
#02510:41
#02612:0013000013000013
#02615:13130000
#02618:0000001300000000
#0261b:00001313
#02616:00000013
#02716:0014140014140014
#02712:0000001300000013
#0271b:13000013
#0281b:0013000013000000
#02816:0000141400000000
#02812:0000000013000013
#02917:13
#0291b:00131300
#02915:00000013
#02918:0000000000130000
#02912:0000000013000013
#03618:0013001300000000
#03615:13130000
#0361a:000000141414
#03612:000000141414
#03716:0000140014140000
#03712:2400000023000013
#0371b:0000230000230000
#0371a:24
#03710:41
#03815:1300000013000013
#03818:0013001300160000
#0381b:00130000
#03812:0000000000130000
#03918:13131300
#0391b:0013000000001313
#03915:0000001300000000
#03912:0013
#03916:0000000000001313
#04012:0013000000160000
#04015:00130000
#04018:0000001300000000
#0401b:0000000013001313
#04112:1300000013000013
#04115:0013000000000000
#04118:00160000
#0411b:0000000000130013
#04116:0000000024240000
#04215:1313
#04218:0013001300000000
#0421b:0000130000130000
#04212:0000130000130023
#04216:0000000000000014
#04316:1400141400000000
#04318:0000000000130000
#04315:00000013
#04312:0000230000000013
#0431b:2313
#04317:0000000000000013
#0441b:0013001300000000
#04412:00130013
#04418:0013
#04415:0000000000130000
#04416:0000140000000053
#04414:00000000000000000000000000530053
#05114:0000001300000000
#05116:0013
#05119:0000000000130000
#05117:00000013
#05112:0000130000001313
#05118:13
#0511b:0000000013000013
#05212:001400130000
#05216:001400
#0521a:0014
#05218:00000013
#0521b:0000000000000013
#05215:0000000000130000
#05314:0012000000000000
#05316:2400120000140000
#05318:0000001200000012
#0531c:0000000000120000
#0531a:00000012
#05312:22
#05310:41
#05417:0012001200000000
#0541c:0012000000000000
#05412:0000001200000000
#05414:0012
#05416:0000000000120000
#05418:00000012
#0541a:0000000000000012
#05717:0000001200000000
#05712:0022000000120000
#0571c:2200001200000000
#05714:00000012
#05716:2424000000000012
#0571f:11
#0581c:1200000000120000
#05818:1200120000000012
#0581a:0012000000001200
#05816:0000001200000000
#06612:13
#06615:00130000
#06618:0000000013000013
#0661b:13000013
#06715:13130013
#06712:0013000000000000
#06718:0000001300000000
#0671b:0013
#06812:13000013
#06818:00130000
#06815:0000000013000013
#0681b:13
#06918:13130000
#0691b:0013000013000000
#06915:0000001300000000
#06912:0013
#0861b:0013
#08615:00000013
#08612:2400240000000013
#08617:0000000000000013
#08618:0000000000130000
#0861a:54140000
#08616:0024000013000000
#08716:00130000
#08717:00001353
#0871b:0013130000130000
#08712:00000013
#08719:00000000000000000000005300000000
#08812:2413
#0881b:0000000000000013
#08816:1400140000000013
#08815:0000000000130000
#08818:00000013
#08817:0013
#0881a:00240000
#08912:0014000014001300
#08916:00140000
#0891a:0000001400000000
#0891b:0000000000130000
#08915:0000000000000013
#08919:00000000000000000000005300000000
#08917:00000053
#00016:000000000012
#00018:000000121200
#0111b:1313
#01112:00130013
#01116:14141300
#01114:0000000000130000
#01117:0000000000001313
#01212:0014000000000000
#01216:00140000
#0121a:0000001400000000
#01218:00000013
#01215:0000000000000013
#03216:13
#03217:00130000
#03215:0013
#03218:0000000000130000
#0321b:13000013
#03212:00130013
#03516:14140000
#03512:0000130000000013
#0351b:1313
#03515:00000013
#03518:0000000000130000
#05012:00001313
#05015:0000130000000013
#0501b:1313
#05018:0013001300000000
#0601c:1212
#06018:0000000000120000
#0601a:00000012
#06016:0000120000000012
#06019:0012000000000000
#06013:0000001200000000
#06118:12000000000000000000005400000054
#06114:00001200000000000054000000540000
#06116:0000120014545454
#06112:0000001200000000
#06115:0000000000000000000000000000000000540054000000000054005400000000
#06117:0000000000000000000000000000000000000000005400540000000000540054
#06212:12120000
#06216:54120000
#0641c:12120000
#06418:12120000
#0701b:0000000000000013
#07012:2400000024240013
#07016:00130000
#07017:1300000013130000
#07019:00000013
#0701a:00240000
#0701f:21
#07118:0013001300000000
#0711b:0000130000130000
#07115:1313
#07116:0000000000000014
#07112:0000000000130000
#07316:0013000000000000
#07318:00130000
#07315:0000001300190000
#07312:0000000013000016
#0731b:0000000000000013
#07317:13
#07418:1300160000000016
#07415:0013000000000000
#07412:0000130000000013
#0741b:0000000013130000
#07416:0000000024240000
#07514:1313
#07516:0013001300000000
#07518:0000130000160000
#07512:0000130000130000
#07515:0000000000000013
#0761b:0000000013000013
#07618:2613000000130000
#07615:00130013
#07612:1300001316000013
#07712:00140014
#0771a:00140014
#07718:0000001400000000
#07716:0014
#07714:0000000000140000
#07212:0000000000160000
#07216:0000000000000013
#07218:0016
#0721b:0000000000000013
#07210:41
#07816:0000140000540000
#0781a:24001454
#07812:24242424
#07818:00000000000000000054005400000000
#08212:14242424
#08216:0014000014000000
#0821a:00140014
#08512:14001454
#08518:00001400000000000000000000540054
#08516:0000140000540054
#08514:00000000000014000054005400000000
#0851a:24000014
#08513:0000000000000000000000000000000000540000000000540000000000000000
#08515:0000000000000000000000000000000000000054005400000000000000000000
#08519:0000000000000000000000000000000000000000000000000054000000000054
#08517:0000000000000000000000000000000000000000000000000000005400540000
#0951a:0000000014140024
#09512:2c002c0014140024
#09518:005400000000000000000000
#09516:000054000054000000000000
#09514:005400
#09612:00120000
#09617:00120000
#0561a:00140000
#05619:0015
#05618:0000000000000000005400000000000000000000000000001600000000000000
#05616:1200000012000000000054000000000000000000000000000056000000000000
#05612:0000000000000000240000000000000024000000000000002400005600000000
#05614:0000000000000000000000540000000000000000000000000000560000000000
#05617:0000000000000000000000000000000000550000000000000000000000000000
#05615:00000000000000000055000000000000
#05613:0000000000000000000000000000000000000055000000000000000000000000
#0031a:14140000
#00316:00001400000000140000000014000000
#00312:1400001414000000
#00314:0000000000140000
#00318:0000000000000014
#00716:1313
#00712:0000130000001313
#00717:00130013
#0071b:1313
#00714:0013000000130000
#00817:0000130000000013
#0081b:13001313
#00816:13001353
#00812:0000130000130000
#00814:00000000000013000000005300000000
#03016:13
#03012:00131300
#03018:00000013
#03015:0000000000130000
#0301b:0000000013000013
#03117:13
#0311b:00131300
#03115:00000013
#03118:0000000000130000
#03112:0000000013000013
#03316:13
#03312:00131300
#03318:00000013
#03315:0000000000130000
#0331b:0000000013000013
#03417:13
#0341b:00131300
#03415:00000013
#03418:0000000000130000
#03412:0000000013000013
#04516:0000140014140000
#0451b:2300000023000013
#04512:6300230000230000
#04618:1313
#04615:0013001300000000
#04612:0000130000160013
#04617:0000000000000013
#0461b:0000000000130000
#04717:1300000000000013
#04715:00131300
#04718:0000001300000000
#0471b:0000000000130000
#04712:1300000000130013
#0481b:0013000000000000
#04818:0000130000160000
#04815:0000001300000000
#04812:0000000013001313
#0491b:1313
#04918:0013000000000013
#04912:0000160000130000
#04915:00000013
#04916:0000000024240000
#05517:2222001200000000
#0551c:2200001200120000
#0551a:00000012
#05518:0000000000000012
#05512:0022000000000000
#05916:12
#07916:14001454
#0791a:0000140000540000
#07912:24242424
#07918:00000000000000000054005400000000
#08016:0000140000540000
#08012:24001454
#0801a:24242424
#08014:00000000000000000054005400000000
#08116:1400000014005414
#08112:0000140000540000
#0811a:24242424
#08114:00000000000000000054005400000000
#08316:1400005414000054
#0831a:0054140000541400
#08312:24242424
#08317:0054000000000000000000540000000000540000000000000000005400000000
#08318:00540000005400000054000000540000
#08319:0000005400000000005400000000000000000054000000000054000000000000
#0841a:14242424
#08416:0014000014000000
#08412:00140014
#08410:41
#0921b:0013
#09212:2400240000000013
#09216:00141300
#09218:0000000000130000
#09217:0000000000000013
#09215:00000013
#0921a:24
#0931a:0014000014000000
#09316:0000140000005314
#09312:0000001400130000
#0931b:00000013
#09314:00000000000000000000005300000000
#09012:00160000260000160000001600002600
#09018:26000016000026000016000026000016
#09112:00160000260000002600001600002600
#09118:00000016000026000016000000160000
#0091b:23232323
#00912:23232323
#00915:0000000000000023
#00919:00530000000000000053000000000000
#00917:0053000000530000
#00914:00000000005300000000000000000000
#00916:0000005300000000
#0101b:00232300
#01018:23000000000000000000005300000000
#01012:00232300
#01015:0023000000000000
#01019:00000000005300000000000000000000
#01017:0000005300000000
#01014:00000000000000000053000000000000
#01016:0000000000530000
#0941a:24
#09412:00240028
#09416:000054000054280054000054
#09418:005400000000005400000000
#09414:000054000054
#00452:00000014
#0045a:00000014
#01157:0000000000000063
#01352:13
#0135b:13
#0155b:0000005300000000
#01652:0000001300000000
#0185b:0000004300000053
#0205b:0013
#02052:0013
#0215b:13
#02152:13
#02156:0000000000000054
#0235b:0000005300000000
#02452:0000001300000000
#0245b:0000001300000000
#0265b:0013
#02652:0000000013000023
#02656:00000053
#0285b:0013
#02852:0013
#0325b:00000013
#03252:00000013
#03752:14
#0375a:14
#0375b:0000000000130000
#03858:0000000000160000
#03952:0013
#0395b:0000000000000063
#04052:0000000000160000
#04158:00160000
#04252:0000000000130000
#0425b:0000000000130000
#04352:0000330000000053
#0435b:43
#05158:53
#0515b:0000000000000053
#0575c:0000005200000000
#05756:0014000000000000
#0715b:0000000000130000
#07152:0000000000130000
#07355:0000000000190000
#07357:23
#07452:00130000
#07458:00160000
#07552:0000000000130000
#07558:0000000000160000
#07652:0000000000000053
#0765b:0000000000000063
#07052:14
#0705a:00140000
#0785a:14
#07252:0000000000160000
#07258:0016
#0725b:0000000000000053
#08652:0000340000000053
#0885b:0000000000000053
#0885a:00440000
#0025a:00000014
#00252:00000014
#0055b:0000000000000053
#00657:23
#00752:0000000000000063
#00856:23
#0125a:0000001400000000
#01455:0000001300000000
#01752:0000000000000033
#02752:0000000000000013
#04552:3300000000130000
#0455b:43
#04652:0000000000160000
#0475b:0000000000130000
#04752:1300000000130053
#04757:13
#04858:0000000000160000
#04952:00160000
#0505b:0013
#05052:0013
#0695b:0053
#06952:0053
#06252:12120000
#0645c:12120000
#06652:13
#0665b:13
#06852:13
#0685b:13
#07752:00000014
#08052:14
#08756:00230000
#09252:0000340000000063
#0053b0:0000000000000013
#006370:53
#0063b0:0023000000000000
#007320:0000000000000013
#008360:53
#008320:0023000000000000
#011370:0000000000000013
#0123b0:0023000000000000
#0153b0:0000001300000000
#015370:0000000000230000
#017320:13230000
#0183b0:0000000000000013
#019370:00230000
#021360:0000000000000014
#0223a0:0024000000000000
#0233b0:0000001300000000
#023370:0000000000230000
#026360:00000013
#026320:0000000000000053
#027360:23
#029320:13
#029360:00230000
#0303b0:13
#030370:00230000
#031320:13
#031360:00230000
#0333b0:13
#033370:00230000
#034320:13
#034360:00230000
#0393b0:0000000000000013
#040370:0023000000000000
#043320:0000000000000013
#044360:0023000000000000
#047320:0000000000000013
#048360:0023000000000000
#051380:13
#0513b0:00230000
#0513b0:0000000000000013
#052370:002300000000
#0573c0:0000001200000000
#057370:0000000000220000
#058320:0000001200220000
#059320:12220000
#059381:0000122200000000
#059340:0000001222000000
#0593c1:0000000012220000
#059360:0000000000122200
#059381:0000000000001222
#059320:0000000000000012
#060320:22
#069320:0013
#069350:00000023
#0693b1:0013
#069381:00000023
#0723b1:1323000000000000
#072350:0013230000000000
#072381:0000132300000000
#072320:0000001323000000
#0723b0:0000000000000013
#073370:53
#0733b0:0023000000000000
#076320:0000000000000013
#077350:0023000000000000
#0763b1:0000000000000013
#077381:0023000000000000
#086321:0000000000000013
#087361:0023000000000000
#087361:00130000
#087321:0023
#0883b1:0000000000000013
#089371:0023000000000000
#092321:0000000000000013
#093361:0023000000000000
#0069b0:0000000000130000
#006970:00000023
#008920:0000000000130000
#008960:00000023
#0099b0:13
#009970:0023000000000000
#009920:00130000
#009960:0000002300000000
#0099b0:0013
#009970:0000000000230000
#0109b0:00130000
#010970:0000002300000000
#010920:0013
#010980:00000000000000000000002300000000
#044920:00000013
#044960:0000000000000023
#0569a0:00140000
#056960:00000000002400000000000000000000
#056990:0015
#056950:00000000000000000025000000000000
#056980:00000016
#056940:00000000000000000000000000260000
#0789a0:00001424
#078960:0000000000540000
#079960:00001424
#0799a0:0000000000540000
#080920:00001424
#080960:0000000000540000
#081960:00001424
#081920:0000000000540000
#083960:14
#0839a0:0024000000000000
#0839a0:00140000
#083960:0000002400000000
#083960:0014
#0839a0:0000000000240000
#0839a0:00000014
#083960:0000000000000024
#085920:0014
#085960:0000000000240000
#0859a0:00000014
#085960:0000000000000024
#0879b0:0000000000130000
#087970:00000023
#0899b0:0000000000130000
#089970:00000023
#093920:0000000000130000
#093960:00000023
#0949a0:14
#094960:002400000000
#094920:00140000
#094960:000000000024000000000000
#0949a0:0014
#094960:000024
#094920:00000014
#094960:000000000000000000000024
#0959a0:14
#095960:002400000000
#095920:00140000
#095960:000000000024000000000000
