This file was generated by Ched 2.7.0.0.
#TITLE ""
#ARTIST ""
#DESIGNER ""
#DIFFICULTY 0
#PLAYLEVEL
#SONGID ""
#WAVE ""
#WAVEOFFSET 0
#JACKET ""
#REQUEST "ticks_per_beat 480"
#00002: 4
#BPM01: 240
#00008: 01
#TIL00: ""
#VOLUME: ""
#HISPEED 00
#MEASUREHS 00
#0011a:14
#00114:00140000
#00118:0014
#00112:00000014
#0021a:14
#00214:00140000
#00312:14
#0041a:00140000
#00412:0014
#00418:00000024
#00514:1414
#00518:00140014
#00612:1414
#00618:00140000
#00718:1414
#00714:00140014
#0081a:1414
#00814:00140000
#00912:1414
#00918:00140014
#01014:1414
#01018:00140000
#0111a:1414
#01114:00140014
#01218:1414
#01214:00140000
#01312:14
#01318:0014
#01310:41
#01414:14
#0141a:0014
#0171a:14
#01714:0014
#01818:14
#01812:0014
#02114:14
#02118:0014
#02212:14
#0221a:0014
#02518:14
#02514:0014
#02510:41
#0261a:14
#02612:0014
#02912:1414
#02918:00140000
#0301a:1414
#03014:00140000
#03112:1414
#03118:00140000
#0321a:1414
#03214:00140000
#03314:1414
#03318:00140000
#0341a:1414
#03412:00140000
#03514:1414
#03518:00140014
#03814:1414
#03818:00140000
#03912:0014
#0391a:24
#0371a:0014
#03712:24
#03710:41
#04018:1414
#04014:00140000
#04214:1414
#04218:00140000
#0411a:0014
#04112:24
#04418:1414
#04414:00140000
#04312:0014
#0431a:24
#04518:00140000
#04514:0014
#0451a:00000014
#04512:24
#04614:14
#04618:00140000
#04612:0014
#04714:00140000
#04718:0014
#04712:00000014
#0471a:24
#04818:14
#04814:00140000
#0481a:0014
#04918:00140000
#04914:0014
#0491a:00000014
#04912:24
#05014:14
#05018:00140000
#05012:0014
#05114:00140000
#05118:0014
#05112:00000014
#0511a:24
#0521a:14
#05314:0014
#05310:41
#0541a:14
#05412:0014
#05518:14
#05514:0014
#0571a:14
#05712:0014
#0571f:11
#05818:14
#05814:0014
#0591a:14
#05912:0014
#0601a:14
#06412:14
#0661a:14
#06614:0014
#0671a:14
#06714:0014
#06818:14
#06812:0014
#07114:1414
#07118:00140000
#07212:0014
#0721a:24
#07210:41
#0701a:0014
#07012:24
#0701f:21
#07318:1414
#07314:00140000
#07514:1414
#07518:00140000
#0741a:0014
#07412:24
#07718:1414
#07714:00140000
#07612:0014
#0761a:24
#07818:00140000
#07814:0014
#0781a:00000014
#07812:24
#07914:14
#07918:00140000
#07912:0014
#08014:00140000
#08018:0014
#08012:00000014
#0801a:24
#08118:14
#08114:00140000
#0811a:0014
#08218:00140000
#08214:0014
#0821a:00000014
#08212:24
#08314:14
#08318:00140000
#08312:0014
#08414:00140000
#08418:0014
#08412:00000014
#0841a:24
#08410:41
#0851a:14
#08614:0014
#0871a:1414
#08714:00140000
#08814:14
#08818:0014
#08912:1414
#08918:00140000
#09014:0014
#09018:14
#0911a:1414
#09114:00140000
#09214:14
#09218:0014
#09312:1414
#09318:00140000
#09612:00140000
#06918:2424
#06914:00240000
#01512:00343434
#01612:34340000
#0191a:00343434
#0201a:34340000
#02314:00343434
#02414:34340000
#02718:00343434
#02818:34340000
#00258:00000014
#00352:54
#03752:14
#0525a:54
#0605a:64
#0855a:54
#07052:14
#002380:0000000014342400
#003320:14
#004340:24
#015320:14343434
#016320:34340000
#016340:0024
#0193a0:14343434
#0203a0:34340000
#020380:0024
#023340:14343434
#024340:34340000
#024320:0024
#027380:14343434
#028380:34340000
#0283a0:0024
#036320:14
#037320:24
#0523a0:14
#053380:24
#0563a0:14240000
#056320:00001424
#0603a0:14
#062360:24
#0853a0:14
#086380:24
#0943a0:14000034
#094390:0034000000340034
#094380:00343400
#094370:0000003400000000
#095380:34340000
#095370:0034000000000000
#095390:0000003400000000
#0953a0:0000000034340024
