This file was generated by Ched 2.7.0.0.
#TITLE ""
#ARTIST ""
#DESIGNER ""
#DIFFICULTY 0
#PLAYLEVEL
#SONGID ""
#WAVE ""
#WAVEOFFSET 0
#JACKET ""
#REQUEST "ticks_per_beat 480"
#00002: 4
#BPM01: 136
#BPM02: 146
#BPM03: 156
#BPM04: 166
#00008: 01
#06908: 02
#07108: 03
#07308: 04
#TIL00: ""
#VOLUME: ""
#HISPEED 00
#MEASUREHS 00
#0061a:14
#00610:41
#00714:14
#00818:14
#00912:14
#0101a:14
#01114:14
#01218:14
#01312:14
#0141a:14
#0151a:14
#01614:14
#01714:14
#01818:14
#01918:14
#02012:14
#02112:14
#02612:0016
#02618:26
#02610:41
#02718:1616
#02812:16
#02818:0016
#02912:1616
#03018:16
#03012:0016
#03118:16
#03112:0016
#03218:1616
#04312:0014
#04518:0014
#04714:0014
#04918:0014
#05918:1616
#05912:00260000
#0591f:00210000
#06012:16
#06018:0016
#06010:41
#06112:1616
#06312:16
#06318:0016
#06412:16
#06418:0016
#06512:16
#06518:0016
#0671a:14
#06714:0014
#06818:14
#06812:0014
#0691a:14
#06914:0014
#07018:14
#07012:0014
#0711a:1414
#07110:41
#07214:1414
#07318:1414
#0511f:11
#03418:26
#03410:41
#03612:26
#03718:26
#03812:26
#04018:26
#04112:26
#07414:24
#04210:41
#0013a0:14
#0023a0:24
#003320:14
#004320:34
#005320:24
#0223a0:14
#0233a0:24
#024320:14
#025320:24
#033320:16362600
#034380:1636
#035380:3626
#036320:1626
#037380:1626
#038320:1636
#039320:3626
#040380:1626
#041320:1626
#0423a0:14
#0433a0:24
#044320:14
#045320:24
#046380:14
#047380:24
#048340:14
#049340:24
#050380:14343434
#051380:34
#0523a0:24
#053340:14
#054320:24
#0553a0:14
#056380:24
#057320:14
#058340:24
#062380:1626
#066320:1626
#074340:14
#075320:36
#078320:24
