This file was generated by Ched 2.7.0.0.
#TITLE ""
#ARTIST ""
#DESIGNER ""
#DIFFICULTY 0
#PLAYLEVEL
#SONGID ""
#WAVE ""
#WAVEOFFSET 0
#JACKET ""
#REQUEST "ticks_per_beat 480"
#00002: 4
#BPM01: 136
#BPM02: 146
#BPM03: 156
#BPM04: 166
#00008: 01
#06908: 02
#07108: 03
#07308: 04
#TIL00: ""
#VOLUME: ""
#HISPEED 00
#MEASUREHS 00
#00112:16
#00118:16
#0021b:13
#00218:000000000000000000000013000000000000000000000000
#0021a:0013
#00217:00000013
#00212:00000013
#00316:13
#00312:000000130000000000000013
#00416:00130000
#00414:0000001300000000
#00412:0000000000130000
#0041b:0000000000130000
#00612:25131300
#00618:000000000000130000130000000013000000000000130000
#0061b:0013000013001300
#00615:000000000000000000000000000000130000000013000000
#00619:25
#00610:41
#0071b:00131300
#00715:000000000000130000130000000013000000000000130000
#00712:1313000013001300
#00718:000000000000000000000000000000130000000013000000
#00818:0013000000001300
#00812:00131300
#0081b:130000000000130000000000130000000000000000000033
#00815:0000001300130000
#00915:13131313
#0091b:0013000000130000
#00918:00131313
#00912:0000001300000013
#01018:1300131300000000
#01012:00131300
#0101b:0013000013001300
#01016:0000000000130000
#01017:0000000000000013
#01019:000000000000001300000000
#01014:240000000013
#01218:000000130000000000000000000013000000130000000000
#01212:00131300
#0121b:130000000000130000000000130000000000000000000033
#01215:0000001300130000
#01312:1313
#01318:0013000013130000
#01315:0000131300001313
#0131b:00130013
#01418:1300001300000000
#01416:0013130000130000
#01419:00000013
#01412:240000000000000000000013000000000000000000130000
#0141b:0000000000130000
#01414:00000013
#01417:0000000000000013
#01512:1313000000130000
#01517:000000000013000000000000000000130000000000000000
#01519:000000001300000000130000
#01516:0000001300000013
#01514:00130013
#0151b:130000000000000000000013000000000000000000130000
#01615:0000001300001300
#01617:0013130000000000
#01612:1300000000130013
#01618:0000000000130013
#0161b:130000000000000033000013000000000000130000000000
#01715:000013000000000000230000000013000000000000230000
#0171a:1414
#01718:000000230000000013000000000000230000000013000000
#01712:00140014
#01815:0000001300000000
#01812:0000000000130000
#01817:0013130000000000
#0181b:000000000000000000000013000000000000000000130000
#0181a:24
#01912:1300130000000013
#01918:001300
#01915:0000001300000000
#0191b:000000000000000000000013000000130000000000000000
#01916:0000000000130000
#01917:0000000000000013
#01914:00000013
#01919:00000013
#0201b:1313130000000000
#02012:130000000000000000130000000000130000000033000000
#02017:000000000000000033000013000000130000000000130000
#02016:00000013
#02112:130000000013000000000000000000130000000000000000
#02117:0000000000130000
#0211b:0000000013000013
#02114:00000013
#02119:00000013
#02116:000000000000000033330033000000000000000000130000
#0251b:13
#02515:0013000000000000
#02512:00130000
#02518:0000001326000000
#02517:00000012
#02618:260000130000130000000000000000130000000013000000
#02615:000000000013000000000000000013000000000000130000
#0261b:00000013
#02612:26000013
#02610:41
#02715:000000130000130000000000000000130000000013000000
#02718:000000000013000000000000000013000000000000130000
#02712:24000013
#0271b:00000013
#0271a:24
#02818:000000130000130000000000000000130000000013000000
#02815:000000000013000000000000000013000000000000130000
#02812:24000013
#0281b:00000013
#0281a:24
#02917:00130013
#02916:1313
#0291a:2424
#02912:00240024
#02914:0023000000230000
#02919:0000002300000023
#03015:0013130000131300
#03018:260000000013000000000000000000000000000000130000
#0301b:000000000000000000000000000013000013000000000000
#03012:2600000000000013
#0311a:1400240014000024
#03112:24142424
#03114:0024000000240000
#03118:0000002400000000
#03117:00000024
#03115:0000000000000024
#03215:000000130000000000000013000000000000000000000000
#0321b:000000131300001300130000
#03212:260000000000130013000000000000130000000000000000
#03218:260000000000000000000013000000000000000000000000
#03216:00000013
#03214:0000000000000013
#03219:0000000000000013
#03312:13132400
#0331b:0013001300000000
#03317:23230000
#03316:0023002300000000
#0331a:0024
#03416:0000241424142414
#0341a:00000000001400140014001400140000
#03412:24
#03417:27
#03410:41
#0351a:2414141414000000
#03513:0014000000000000
#03514:00140000
#03515:0000001400130013
#03516:0014
#03518:00000000000000000000001300000000
#03512:24000013
#0351b:00000013
#03612:2414141414001300
#03619:0014000000000000
#03618:0000140000130013
#03617:0000001400000000
#03616:0014
#03615:00000000000000000000001300000000
#0361b:00000013
#0361a:24
#0371a:2414141414000000
#03713:0014000000000000
#03714:00140000
#03715:0000001400130000
#03716:0000000014000014
#03718:00000000000000000000001300000000
#03712:24000013
#0371b:00000013
#03818:00140000
#03814:0000001400000000
#03817:0014
#03815:0000000000140000
#03816:0000000000001414
#0381a:24
#03812:27
#03916:00000000001400140014001400140000
#03912:2400241424142414
#0391a:24
#04016:00000000001400140014001400140000
#0401a:2400241424142414
#04012:24
#0421b:000000130000000000000013000000000000000000000013
#04215:000000000000130000130000000013000000000000130000
#04218:260000000000000013000000000000130000000013000000
#04212:2613000000001300
#04210:41
#04312:000000130000000000000013000000000000000000000013
#0431b:0013000000001300
#04318:000000000000130000130000000013000000000000130000
#04315:230000000000000013000000000000130000000013000000
#0441b:000000130000000013000000000000000000000000000000
#04415:000000130000000000130000000013000013000013000000
#04412:000000000013000000000000000000000000000000000000
#04418:230000000000130000000013000000130000130000130000
#04514:0014000000130013
#04518:0000001400000000
#04519:0000000000130013
#0451a:24242424
#04512:24242424
#04617:000000130000000000000000000000000000000000000013
#04612:240000000013000000000000000000000000000000000000
#04619:000000130000000000001300
#0461b:000000000000000000130000000013000013000000000000
#04616:000000000000000000000013000000130000130000000000
#04614:000000000000000013000000000000000000000000130000
#0461a:24
#04719:0013250000001300
#04716:000000000013000000000000000000000013000000000000
#04714:000000000000000000130000000000000000000013000000
#04717:000000000000000000000013000000000000000000130000
#0471b:0000000000130000
#04712:2525
#04815:0013000000000013
#04819:000000000013000000000000000000000013000000000000
#04814:00130013
#04818:001300
#04813:0000001300130000
#0481a:240000000013
#0481b:000000000000000000000000000033000000000000000013
#04812:24
#04916:13130000
#04912:0013001300000000
#04914:00130013001300130000000000000000
#04917:0013001300002200
#0491b:00131300
#05516:12
#05512:0012
#05517:00121212
#05618:12
#0561c:0012
#05617:00121212
#05712:13
#0571b:0013000000000000
#05713:00130000
#0571a:0000001300000000
#05714:0013
#05719:0000000000130000
#05715:00000013
#05718:0000000000000013
#05815:1313131313131313
#05819:000012000012000012000012000012000012000012000012
#0511c:12
#05118:00120012
#0511f:11
#05912:23001414
#05918:000000000000000000000000000013000000000000130000
#05915:000000000000000000000000000000130000000013000000
#0591a:00241414
#0591f:00210000
#0601a:14
#06016:000013000000000000000000000000130000000000130000
#0601b:0013000000130013
#06014:000000000013000000000000000000000000000000000000
#06019:00130000
#06012:140000000000000013000013000000000000130000000000
#06017:00000013
#06010:41
#06112:14000014
#06118:000013000013000000000000000000130000000013000000
#06115:000000130000000000000000000013000000000000000000
#0611a:14000014
#06217:000000000013000000000000000000000013000000000000
#06216:000000000000000000000013000000000000000000000000
#0621a:2424
#06212:00240024
#06214:0023000000230000
#06219:0000002300000023
#06315:000000000013000000000000000000130000000000130000
#06312:26000013
#0631b:000000130000000000000000000013000000000000130000
#06318:260000000000000000000000000000000013000000000000
#0641a:1400240014000024
#06412:24142424
#06418:0013002300130000
#06415:0023001300230024
#06417:00000024
#06515:000000130000000000000013000000000000000000000000
#0651b:000000000000130013000000000013000013000000000000
#06512:260000000000130013000000000000130000000000000000
#06518:260000000000000000000013000000000000000000000000
#06516:00000013
#06514:0000000000000013
#06519:0000000000000013
#06612:130000000013000000000000000000000000220000000000
#0661b:001300001300000000000000
#06617:23230000
#06616:0023002300000000
#0661c:00000022
#06718:260000130000130000000000000000130013000013000000
#06712:260000000013000000000000000000000000130000000000
#06715:000000000000000000130000000013000000000000130013
#0671b:000000000000000000000013000000000000000000000000
#06818:130000000000000000130000000013000000000000130013
#06815:000000130000130000000000000000130013000013000000
#0681b:000000000013000000000000000000000000130000000000
#06812:000000000000000000000013000000000000000000000000
#06915:130000000000000000000000000000130013000013000000
#06912:000000000013000000000013000000000000000000000000
#0691b:00130013
#06918:000000130000000000130000000013000000000000130013
#07012:1414
#07018:000000130000000000000013000000130000000000000013
#07015:000000000013000000130000000000000013000000130000
#0701a:00140014
#07118:0014140000000000
#07112:2400241400000000
#07114:0000000014001414
#0711a:0000000024142400
#07110:41
#07218:1414140000000000
#07212:2400241400000000
#07214:0000000014001414
#0721a:0000000024142400
#07318:1414000024000000
#0731a:0000141400002400
#07312:2400000014140000
#07314:0000240000001414
#07412:00140014001400140000000000000000
#0741a:2424242400000000
#07418:0000000024242424
#07414:00000000000000000024002400240024
#05218:00120012
#05316:00120012
#05416:00120012
#0111b:00131300
#01115:0000131300000000
#01112:1313000013001300
#01117:0000000000130000
#01116:0000000000000013
#01114:000000000000001300000000
#01119:000000000013
#02214:0000001300000000
#02217:0013
#02212:00231300
#0221b:13000013
#02219:0000000000000013
#02216:23
#02316:13
#0231b:1300001300001300
#02312:0000130013000013
#02317:0013
#00516:00000022
#00518:00000022
#02412:2300230023230023
#0241b:2323002323002300
#02415:0023002300002300
#02418:0000230000230023
#04112:2424000000000000
#0411a:2424000000000000
#05012:23232300
#05017:23232300
#0501b:0023002300000000
#05016:0023002300002200
#05018:00000022
#0751a:24
#07512:24
#00152:66
#00158:66
#00258:000000000000000000000063000000000000000000000000
#0025a:0063
#00257:00000063
#0025b:63
#00252:00000063
#00356:63
#00352:000000630000000000000053
#00454:0000005300000000
#00456:00230000
#00452:0000000000530000
#0045b:0000000000530000
#00556:00000012
#00558:00000012
#00955:1313
#00958:00130013
#01054:14
#01056:0000000000530000
#01057:0000000000000063
#01352:1313
#0135b:00130013
#01452:140000000000000000000013000000000000000000000000
#01456:00530000
#01657:00630000
#0165b:000000000000000000000013000000000000000000000000
#01857:00630000
#0185b:000000000000000000000013000000000000000000630000
#0185a:14
#0195b:000000000000000000000013000000000000000000000000
#02152:130000000063000000000000000000000000000000000000
#0205b:00630000
#02057:000000000000000000000013000000530000000000530000
#02056:00000063
#02256:13
#02252:0023
#02257:0013
#0225b:23
#0255b:13
#02552:00130000
#02558:0066
#02658:46530000
#02652:36
#0265b:000000000000000000000013000000000000000000000000
#02655:000000000000000000000013000000000000000000000000
#02755:00630000
#02752:000000000000000000000013000000000000000000000000
#02758:000000000000000000000013000000000000000000000000
#02858:00530000
#0285b:000000000000000000000013000000000000000000000000
#02855:000000000000000000000013000000000000000000000000
#0295a:4444
#02952:00340034
#03055:00630000
#03052:360000000000000000000013000000000000000000000000
#03058:460000000000000000000013000000000000000000000000
#03152:14141400
#0315a:14141400
#03252:36
#03258:460000000000000000000013000000000000000000000000
#03255:000000000000000000000013000000000000000000000000
#03457:57
#0355a:0044444444000000
#03652:0034343434000000
#0375a:0044444444000000
#03852:67
#03858:00540000
#03854:0000005400000000
#03857:0054
#03855:0000000000540000
#03856:0000000000005454
#04152:00000013
#0415b:00000013
#04252:36000013
#04258:46
#0425b:000000000000000000000013000000000000000000000000
#04352:000000000000000000000013000000000000000000000000
#0435b:00000013
#04458:000000000000000000000013000000000000000000000000
#0455a:14141414
#04552:14141414
#0465a:14
#04652:14
#04656:000000000000000000000013000000000000000000000000
#04752:3535
#04759:00450000
#04852:34
#0485a:44
#04954:00630063006300630000000000000000
#04956:23231300
#04952:0023002300000000
#04957:00000012
#0495b:0013
#05058:00000012
#05056:00000012
#05552:0022
#05556:52
#05658:62
#0565c:0022
#05956:00140000
#0595a:00140000
#06057:000000000000000000000013000000000000000000000000
#06052:000000000000000000000013000000000000000000000000
#0615b:000000000000000000000013000000000000000000000000
#06155:000000000000000000000013000000000000000000000000
#0625a:4444
#06252:00340034
#0645a:14141400
#06452:14141400
#06555:000000000000000000000013000000000000000000000000
#06558:460000000000000000000013000000000000000000000000
#06552:36
#06352:360000000000000000000013000000000000000000000000
#06358:460000000000000000000013000000000000000000000000
#0665c:00000012
#06652:00000012
#06752:36000013
#06758:46
#0675b:000000000000000000000013000000000000000000000000
#06852:000000000000000000000013000000000000000000000000
#0685b:00000013
#06952:000000000000000000000013000000000000000000000000
#0695b:00000013
#07052:1414
#0705a:00140014
#07152:14
#0155b:000000000000000000000013000000000000000000000000
#00755:0000000000000063
#00758:0000000000630000
#01157:0000000000630000
#01156:0000000000000053
#0235b:23
#02352:0023
#02356:13
#02357:0013
#00658:0000000000000053
#00655:0000000000530000
#00659:45
#00652:35
#03352:00000014
#0335a:00000014
#0395a:14
#03952:14
#0405a:14
#04052:14
#001320:16
#002320:535353535353535353535353000000000000530000000000
#002330:005300530053005300530053005300530053005300530000000000000000000000000000000000000000000000000000
#003360:5353
#003320:000000530000000000000053
#003350:000000000000000000000000005300530000000000000000
#003340:000000000000000053530000
#003330:000000000000000000000000000000000000005300530000
#004360:005353530000000000000000
#004350:000000530053000000000000000000000000000000000000
#004340:0000005300000000
#004320:0000000053530000
#005350:53530000
#005330:000000000000000000000000005300005300000000000000000000000000000000000000000000000000000000000000
#005360:000000000000000000000000000000000052000000000000520000000000005200000000220000000000000000000000
#005340:000000000000000000000000000000000000000000000000005200000000520000000000000000000000000000000000
#001381:16
#0023b1:53
#002381:000000000000000000000053000000000000000000000000
#0023a1:0053
#002371:00000053
#0033b1:53
#0043b1:0000000000530000
#005381:530000000052000000000000000000000000000000000000520000000000005200000000220000000000000000000000
#0053a1:005300005300000000000000000000000000000000000000005200000000520000000000000000000000000000000000
#006351:0000000000130000
#006321:00000023
#006381:0000000000000013
#0073b1:23
#007381:0000000000130000
#0073b1:00000023
#007351:0000000000000013
#008321:23
#008321:00000013
#008351:0000000000000023
#008380:0000000000000013
#0083b0:000000000000000000000000000000000000000000000033
#0093b0:23
#010360:0000000000130000
#010320:00000023
#010370:0000000000000013
#0113b0:23
#011370:0000000000130000
#0113b0:00000023
#011360:0000000000000013
#012320:23
#012320:00000013
#012350:0000000000000023
#012381:0000000000000013
#0123b1:000000000000000000000000000000000000000000000033
#0133b1:23
#0143b1:0013230000000000
#014360:00130000
#014320:0000002300000000
#016320:0013230000000000
#016371:00130000
#0163b1:000000000000000033230000000000000000000000000000
#018321:000000130033230000000000000000000000000000000000
#018370:00130000
#0183b0:0000002300000000
#018380:0000000000132300
#018351:0000000000001323
#0183b0:0000000000000013
#019370:23
#0193b0:0013000000000000
#019380:00230000
#020350:0013230000000000
#0203b1:00130000
#020371:000000000000000033230000000000000000000000000000
#020371:0000000000130000
#0203b1:00000023
#020360:00000013
#020320:000000000000000000000000000000000000000033230000
#020371:0000000000000013
#0213b1:23
#021381:000000130023000000000000000000000000000000000000
#021320:000000000013000000000000000000000000000000000000
#021360:000000000000000033330033230000000000000000000000
#0223b0:13
#022370:00230000
#022320:0013
#022360:00000023
#0233b0:13
#023370:00230000
#023320:0013
#023360:00000023
#025380:0013230000000000
#025350:0000001323000000
#025381:0016
#0253c1:00000022
#026381:00130000
#0263b1:000000000000000000000023000000000000000000000000
#026350:000000000000000000130023000000000000000000000000
#027350:00130000
#027320:000000000000000000000023000000000000000000000000
#027381:000000000000000000130023000000000000000000000000
#028381:00130000
#0283b1:000000000000000000000023000000000000000000000000
#028350:000000000000000000130023000000000000000000000000
#030350:00130000
#030320:000000000000000000000023000000000000000000000000
#030381:000000000000000000130023000000000000000000000000
#0333a1:00001424
#033320:00001424
#034370:17
#0343a0:00240000
#038320:17240000
#038381:00140000
#0383a1:0000002400000000
#038340:0000001400000000
#038320:0024
#038371:0014
#0383a1:0000000000240000
#038350:0000000000140000
#038320:00000024
#038361:00000014
#0383a1:0000000000000024
#038360:0000000000000014
#039320:24
#041320:000000000000000000000000000000000000000000000000000000000000000000000000000000000000000000000000000000000000000000000000000000000000000000000000000000000000000000000000000000000000000000000000000000000000000000000000000000000000000000000000000000000000000000000000000000000000000000000000000000000000000000000000000000000000000000000000000000000000000000000000000000000000000000000000000000000000000000000000000000000000000000000000000000000000000000000000000000000000000000000000140000000000000000000000000000000000000000000000000000000000000000000000000000000000000000000000000000000000000000000000000000000000000000000000000000000000000000000000000000000000000000000000000000000000000000000000000000000000000000000000000000000000000000000000000000000000000000000000000000000000000000000000000000000000000000000000000000000000000000000000000000000000000000000000000000000000000000000000000000000000000000000000000000000000000000000000000000000000000000000000000000000000000000000000000000000000000000000000000000000000000000000000000000000000000000000000000000000000000000000000000000000000000000000000000000000000000000000000000000000000000000000000000000000000000000000000000000000000000000000000540000000000000000000000000000000000000000000000000000000000000000000000000000000000000000000000000000000000000000000000000000000000000000000000000000000000000000000000000000000000000000000000000000000000000000000000000000000000000000000000000000000000000000000000000000000000000000000000000000000000000000000000000000000000000000000000000000000000000000000000000000000000000000000000000000000000000000000000000000000000000000000000000000000000000000000000000000000000000000000000000000000000000000000000000000000000000000000000000000000000000000000000000000000056000000000000000000000000000000000000000000000000000000000000000000000000000000000000000000000000000000000000000000000000000000000000000000000000000000000000360000000000000000000000000000000000000000000000000000000000000000000000000000000000000000000000000000000000000000000000000000000000000000000000000000000000005653000000000000000000000000000000000000000000000000000000000000000000000000000000000000000000000000000000000000000000000000000000000000000000000000000000000000000000000000000000000000000000000000000000000000000000000000000000000000000000000000000000000000000000000000000000000000000000000000000000000000000000000000000000000000000000000000000000000000000000000000000000000000000000000000000000000000000000000000000000000000000000000000000000000000000000000000000000000000000000000000000000000000000000000000000000000000000000000000000000000000000000000000000000000000000000000000000000000000000000000000000000000000000000000000000000000000000000000000000000000000000000000000000000000000000000000000000000000000000000000000000000000000000000000000000000000000000000000000000000000000000000000000000000230000000000000000000000000000000000000000000000000000000000000000000000000000000000000000000000000000000000000000000000000000000000000000000000000000000000000000000000000000000000000000000000000000000000000000000000000000000000000000000000000000000000000000000000000000000000000000000000000000000000000000000000000000000000000000000000000000000000000000000000000000000000000000000000000000000000000000000000000000000000000000000000000000000000000000000000000000000000000000000000000000000000000000000000000000000000000000000000000000000000000000000000000000000000000000000000000000000000000000000000000000000000000000000000000000000000000000000000000000000000000000000000000000000000000000000000000000000000000000000000000000000000000000000000000000000000000000000000000000000000000000000000000000000000000000000000000000000000000000000000000000000000000000000000000000000000000000000000000000000000000000000000000000000000000000000000000000000000000000000000
#041340:000000000000000000000000000000000000000000000000000000000000000000000000540000540000540054000000000000000000000000000000000000000000000000000000000000000000000000000000000000000000000000000000
#041350:00000000000000000000000000000000000000000000000000520052000000000000000000000000000000000000000000000000000000000000000000000000
#0413a1:0014540000000000
#041381:000000000000000000000000000000000000000000000000000000000000000000000000000000000000000000000000000000000000000000000000000000000000000000000000000000000000000000000000000000000000000000000000000000000000000000000000000000000000000000000000000000000000000000000000000000000000000000000000000000000000000000000000000000000000000000000000000000000000000000000000000000000000000000000000000000000000000000000000000000000000000000000000000000000000000000000000000000000000000000000000000000000000000000000000000000000000000000000000000000000000000000000000000000000000000000000000000000000000000000000000000000000000000000000000000000000000000000000000000000000000000000000000000000000000000000000000000000000000000000000000000000000000000000000000000000000000000000000000000000000000000000000000000000000000000000000000000000000000000000000000000000000000000000000000000000000000000000000000000000000000000000000000000000000000000000000000000000000000000000000000000000000000000000000000000000000000000000000000000000000000000000000000000000000000000000000000000000000000000000000000000000000000000000000000000000000000000000000000000000000000000000000000000000000000000000000000000000000000000000000000540000000000000000000000000000000000000000000000000000000000000000000000000000000000000000000000000000000000000000000000540000000000000000000000000000000000000000000000000000000000000000000000000000000000000000000000000000000000000000000000540000000000000000000000000000000000000000000000000000000000000000000000000000000000000000000000000000000000000000000000000000000000000000000000000000000000000000000000000000000000000000000000000000000000000000000000000000000000000000000000000000000000000000000000000000000000000000000000000000000000000000000000000000005456000000000000000000000000000000000000000000000000000000000000000000000000000000000000000000000000000000000000000000000000000000000000000000000000000000000000360000000000000000000000000000000000000000000000000000000000000000000000000000000000000000000000000000000000000000000000000000000000000000000000000000000000005600000000000000000000000000000000000000000000000000000000000000000000000000000000000000000000000000000000000000000000000000000000000000000000000000000000000000000000000000000000000000000000000000000000000000000000000000000000000000000000000000000000000000000000000000000000000000000000000000000000000000000000000000000000000000000000000000000000000000000000000000000000000000000000000000000000000000000000000000000000000000000000000000000000000000000000000000000000000000000000000000000000000000000000000000000000000000000000000000000000000000000000000000000000000000000000000000000000000000000000000000000000000000000000000000000000000000000000000000000000000000000000000000000000000000000000000000000000000000000000000000000000000000000000000000000000000000000000000000000000000000000000000000000000000000000000000000000000000000000000000000000000000000000000000000000000000000000000000000000000000000000000000000000000000000000000000000000000000000000000000000000000000000000000000000000000000000000000000000000000000000000000000000000000000000000000000000000000000000000000000000000000000000000000000000000000000000000000000000000000000000000000000000000000000000000000000000000000000000000000000000000000000000000000000000000000000000000000000000000000000000000000000000000000000000000000000000000000000000000000000000000000000000000000000000000000000000000000000000000000000000000000000000000000000000000000000000000000000000000000000000000000000000000000000000000000000000000000000000000000000000000000000000000000000000000000000000000000000000000000000000000000000000000000000000000000000000000000000000000000000000000000000000000000000000000000000000000000000000000000000000000000000000000000000000000000000000000000000000000000000000000000000000000000
#041391:00000000000000000000000000000000000000000052005200000000000000000000000000000000000000000000000000000000000000000000000000000000
#0413b1:000000000000000000000000005300000000230000000000
#048371:000000000000000000000013000000000000000000000000
#0483b1:000000000000000000000000000033230000000000000000
#049361:13332300
#049341:00530053005300530000000000000000
#049321:0033003300000000
#051361:1200000000000052005200000000000000000000000000520052000000000000
#051341:00320032
#052361:0000000000000052005200000000000000000000000000520052000000000000
#052341:00320032
#053361:22
#053380:1200000000000052005200000000000000000000000000520052000000000000
#0533a0:00320032
#054380:0000000000000052005200000000000000000000000000520052000000000000
#0543a0:00320032
#055380:22
#055361:12
#055321:0052
#056361:22
#056380:12
#0563c0:0052
#057380:22
#059320:13
#059340:0053000053000000000000000000000000000000000000000000000000000000
#059330:00530000000000000000000000000000
#059350:0000005300005300000000000000000000000000000000000000000000000000
#059360:0000000000530000240000000000000000000000000000000000000000000000
#059370:0000000000000053000000000000000000000000000000000000000000000000
#060370:000000000000000000130023000000000000000000000000
#061350:000000000000130000000023000000000000000000000000
#0613b1:000000000000000000130023000000000000000000000000
#061351:0000000000000013
#062351:23
#063381:000000000000130000000023000000000000000000000000
#063320:000000000000000000130023000000000000000000000000
#0663a0:0014
#0663c0:00000022
#066321:00001422
#0753a1:14
#0783c1:22
#075320:14
#078320:22
