This file was generated by Ched 2.7.0.0.
#TITLE ""
#ARTIST ""
#DESIGNER ""
#DIFFICULTY 0
#PLAYLEVEL
#SONGID ""
#WAVE ""
#WAVEOFFSET 0
#JACKET ""
#REQUEST "ticks_per_beat 480"
#00002: 4
#BPM01: 136
#BPM02: 146
#BPM03: 156
#BPM04: 166
#00008: 01
#06908: 02
#07108: 03
#07308: 04
#TIL00: ""
#VOLUME: ""
#HISPEED 00
#MEASUREHS 00
#00912:14
#00913:00140000
#00914:0014
#00915:00000014
#00918:0013000000000000
#00919:0000001300000000
#0091a:0000000000130000
#0091b:0000000000000013
#00314:14
#00318:0014
#0041a:14
#00412:0014
#00615:0013000013000000
#00618:2600130000130000
#00612:00000013
#0061b:00000013
#00610:41
#00715:1300130000130000
#00718:0013000013000000
#00712:00000013
#0071b:00000013
#00818:0000130000130000
#00812:0013
#00815:0013000000001300
#0081b:1300000000000013
#01218:0013000000001300
#01215:0000130000130000
#01212:1300000000000013
#0121b:0013
#01018:0013000000001300
#01015:0000130000130000
#0101b:0013
#01012:24000013
#01115:0013000000001300
#01118:0000130000130000
#0111b:13000013
#01112:0013
#01412:0013000000000000
#01415:0000001300000013
#01418:000000000000130000000013000000000000000000000000
#0141a:24
#0141b:000000000000000000000000000033330033000000000000
#0151b:0013000000000000
#01515:000000000000130000000013000000000000000000000000
#01518:0000001300000013
#01512:000000000000000000000000000033330033000000000000
#01612:0013000000000000
#01618:000000000000130000000000000033330033000000000000
#01615:0000001300000000
#0161b:000000000000000000000013000000000000000000000000
#0261b:0013000000130000
#02618:00000013
#02615:0000000000000013
#0261a:24
#02612:24
#02610:41
#02914:0014000000140000
#02912:0000001400000014
#0291a:2424
#02918:00240024
#0311a:0014000000000000
#03119:0000001400000000
#03114:24000024
#03113:00240000
#03112:0024
#03118:0000000000240024
#0321b:0013000000130000
#03215:00000013
#03218:0000000000000013
#03214:24
#03418:0000000000000013141314131413141314131413141314131413141314000000
#0341a:24
#03412:24
#03410:41
#03713:0013
#03718:0013
#0371b:13
#03715:23
#03815:0000000000000013000000130000001300000013000000130000000000000000
#03813:0000151515151500
#03812:24
#03612:13000013
#03618:23
#04112:2515000000000000
#04119:2515000000000000
#04113:0000000000000000000000000000001300000000000000000000000000000000000000000000000000000000000000000000000000000000000000000000000000000000000000000000000000000000000000000000000000000000000000000000000000000000000000000000000000000000000000000000000000000000
#0411a:0000000000000000000000000000001300000000000000000000000000000000000000000000000000000000000000000000000000000000000000000000000000000000000000000000000000000000000000000000000000000000000000000000000000000000000000000000000000000000000000000000000000000000
#04918:00000014000000140000000000000000
#0491a:00140000001400000000000000000000
#04919:1414141400000000
#04912:00000023
#05516:12121212
#05618:13131313
#05714:14141414
#05718:0014001400140014
#05813:14140000
#05819:0014001400000000
#05812:00001414
#0581a:0000000000140014
#05918:0000000000130000
#05915:00000013
#05912:2400000000000013
#0591b:0013
#0591f:00210000
#06015:0000000000130000
#06018:00000013
#0601b:0000000000000013
#06012:0013000000000000
#0601a:24
#06010:41
#06214:0014000000140000
#06212:0000001400000014
#0621a:2424
#06218:00240024
#0641a:0014001400000000
#06412:2424
#06415:00240000
#06418:0000000000240024
#06414:00000024
#0651b:0013000000130000
#06515:00000013
#06518:0000000000000013
#06514:24
#06612:13130000
#0661b:0013001300000000
#06613:0014
#06619:0014
#06614:00000022
#0661a:00000022
#06912:0013000000130000
#06918:1313
#0691b:00130013
#06915:0000001300000013
#06712:0013000000000000
#06718:26130000
#06715:000000000000000000130000000000000000130033330000
#0671b:000000000000000000000000130033330000000000000000
#06818:13
#0681b:000000000000130000000000130033330000000000000000
#06815:000000130000000000000000000000000000130033330000
#06812:0000001300000000
#0701a:1414
#07017:00140014
#07012:0013001300130013
#07118:00140014
#07114:0014000000140000
#07112:0000001400000014
#0711a:2414
#07110:41
#07214:0000141400000000
#0721a:2414000000000000
#07218:0000000024140000
#07212:0000000000001414
#07314:0014000000140000
#07312:0000001400000014
#0731a:2424
#07318:00240024
#0131a:14
#01319:00140000
#01318:0014
#01317:00000014
#01315:0013000000000000
#01314:0000001300000000
#01313:0000000000130000
#01312:0000000000000013
#04218:00130000
#04215:0013001300000000
#04212:25
#04219:25
#0421b:0023
#04210:41
#04712:0014001400140000
#04718:00000014
#04714:0000000000000014
#0471a:2424
#04717:00240000
#04818:0000130000130000
#04815:000000130000000000130000000013000000000000000000
#04812:0000000000001313
#04819:25
#0481b:0023
#04512:0014001400140014
#04517:00240024
#0451a:2424
#01718:00140016
#01713:0015
#0181b:0013000000000000
#01818:0000001300000013
#01815:000000000000130000000000000033330000000000000000
#01812:260000000000000000000013000000000000000000000000
#01912:0013000000000000
#01918:000000000000130000000000000033330033000000000000
#01915:0000001300000013
#0191b:000000000000000000000013000000000000000000000000
#0201b:0013000000000000
#02015:0000130000000013
#02018:0000001300001300
#02112:1323
#02115:0013000000000000
#02118:00130000
#0211b:1300001300000000
#02116:0000000000333333
#02212:00130013
#0221b:00130013
#02218:0013
#02315:13
#02312:00130013
#0231b:00130013
#02318:0013
#02515:130033330000330000330033000000000000000000000000
#0251b:0023
#04015:0000000000000013001300130013001300130013001300130000000000000000
#04014:00000000141414141414141400000000
#04012:24
#02712:0013000000130000
#02715:00000013
#02718:0000000000000013
#0271a:24
#0281b:0013000000130000
#02818:00000013
#02815:0000000000000013
#02812:24
#03012:0013000000130000
#03015:00000013
#03018:0000000000000013
#0301a:24
#0351b:00000013
#03515:23
#03918:0000000000000013141314131413141314131413141314131413141314000000
#0391a:24
#04315:00130000
#04318:0013001300000000
#0431b:23
#04312:2323
#04418:00130000
#04415:0013001300000013
#04412:23
#0441b:2323
#04618:00132300
#04615:0000001300000013
#04612:0013000000000000
#04619:25
#06118:0000000000130000
#06115:00000013
#06112:2400000000000013
#0611b:0013000000000000
#06315:0000000000130000
#06318:00000013
#0631b:0000000000000013
#06312:0013000000000000
#0631a:24
#0511f:11
#00515:00000023
#00518:00000023
#05014:0024002400000000
#05018:24240000
#0501b:0023
#05012:0023
#07516:28
#0741a:2424000000000000
#07414:0000242400000000
#07418:0000000024240000
#07412:0000000000002424
#02412:00230023
#02418:0023000000230000
#02415:2323
#0241b:0000002300000023
#03312:2323
#0331b:2323
#03314:00230000
#03313:0023002300000000
#0331a:0023002300000000
#03319:00230000
#00555:00000013
#00558:00000013
#01052:14
#0265a:44
#02652:34
#02655:000000000000000000000013000000000000000000000000
#0305a:44
#03058:000000000000000000000013000000000000000000000000
#03154:14
#03153:00140000
#03152:0014
#0345a:54
#03458:0000000000000023542354235423542354235423542354235423542354000000
#04252:35
#04259:45
#0425b:00000013
#04952:00000013
#04958:00000024000000240000000000000000
#0495a:00240000002400000000000000000000
#04959:5454545444000000
#0145a:14
#01458:000000000000000000000053000000000000000000000000
#0145b:00000013
#01455:0000000000000053
#01555:000000000000000000000063000000000000000000000000
#01552:00000013
#01558:0000000000000063
#03252:000000000000000000000013000000000000000000000000
#03254:14
#03753:0063
#03758:0063
#0375b:00000013
#03756:00000013
#03855:0000000000000023000000230000002300000023000000230000000000000000
#03853:0000656565656500
#03852:64
#04152:5555000000001500
#04159:5555000000001500
#04153:0000000000000000000000000000002300000000000000000000000000000000000000000000000000000000000000000000000000000000000000000000000000000000000000000000000000000000000000000000000000000000000000000000000000000000000000000000000000000000000000000000000000000000
#0415a:0000000000000000000000000000002300000000000000000000000000000000000000000000000000000000000000000000000000000000000000000000000000000000000000000000000000000000000000000000000000000000000000000000000000000000000000000000000000000000000000000000000000000000
#05052:00000013
#0505b:00000013
#05952:00140000
#0625a:1414
#06258:00140014
#0635a:44
#06358:000000000000000000000013000000000000000000000000
#06452:1414
#06455:00140000
#06554:14
#06555:000000000000000000000013000000000000000000000000
#06654:00000012
#0665a:00000012
#06653:0064
#06659:0064
#0715a:14
#0165b:000000000000000000000053000000000000000000000000
#04859:45
#0475a:1414
#04757:00140000
#04659:45
#04658:00000013
#06758:46
#06755:00000053
#0675b:0053
#01852:160000000000000000000053000000000000000000000000
#01855:00000013
#01858:0000000000000063
#0195b:000000000000000000000063000000000000000000000000
#01958:00000013
#01955:0000000000000053
#02152:0063
#02256:14
#01755:13
#01758:00140016
#01753:0015
#02555:63
#06855:00000053
#0685b:0053
#04055:0000000000000023002300230023002300230023002300230000000000000000
#04054:00000000646464646464646400000000
#04052:64
#02758:000000000000000000000013000000000000000000000000
#02855:000000000000000000000013000000000000000000000000
#03958:0000000000000023542354235423542354235423542354235423542354000000
#0395a:54
#04352:00000013
#0445b:00000013
#06058:000000000000000000000013000000000000000000000000
#06155:000000000000000000000013000000000000000000000000
#02055:0000000000130000
#00658:46
#03352:00000013
#0335b:00000013
#001380:14
#0023a0:24
#001341:14
#002321:24
#0033a1:14240000
#003321:00001424
#004341:14240000
#004381:00001424
#005351:130000005300530053230000
#005321:005300530000000000000000
#005331:000000000000000000000000005300530000000000000000
#005380:130000005300530053230000
#0053b0:005300530000000000000000
#0053a0:000000000000000000000000005300530000000000000000
#014380:000000000000000000000013000000000000000000000000
#0143b0:000000000000000000000000000033330033230000000000
#014350:0000000000000013
#015320:23
#015350:000000000000000000000013000000000000000000000000
#015320:000000000000000000000000000033330033230000000000
#015380:0000000000000013
#0163b0:23
#0163b0:000000000000000000000013000000000000000000000000
#016380:000000000000000000000000000033330033230000000000
#016351:00000013
#016321:0000000000000033
#017351:23
#018321:000000000000000000000013000000000000000000000000
#018351:000000000000000000000000000033330000230000000000
#018381:0000000000000013
#0193b1:23
#0193b1:000000000000000000000013000000000000000000000000
#019381:000000000000000000000000000033330033230000000000
#019351:0000000000000013
#020321:23
#020351:000000000000000000000013000033230000000000000000
#021321:0013
#021361:0000000000333333
#022361:24
#025351:130033330000330000330033000000000000000000000000
#025321:00003323
#0253b0:00001323
#026350:000000000000130000330023000000000000000000000000
#027380:000000000000130000330023000000000000000000000000
#028350:000000000000130000330023000000000000000000000000
#030380:000000000000130000330023000000000000000000000000
#032320:000000000000130033000023000000000000000000000000
#033320:00001323
#0333b1:00001323
#0343a1:14
#034381:0000000000000053345334533453345334533453345334533453345334530000
#035381:23
#035350:1300005300000000005300530000000000530000000000002300000000000000
#035330:0000000035530053350000003553005335000000000000000000000000000000
#036380:1300005335000000355300533500000035530000000000002300000000000000
#0363a0:0000000000530053000000000053005300000000000000000000000000000000
#037350:1300005300000000005300530000000000000000000000000000000000000000
#037330:0000000035530053350000003553005333000000000000000000000000000000
#037360:00000000000000000053000023000000
#037381:0013
#0373b1:00000000000000000053000023000000
#038321:14
#038351:0000000000000053000000530000005300000053000000530000000000000000
#038331:0000353535353500
#039351:23
#0393a0:14
#039380:0000000000000053345334533453345334533453345334533453345334530000
#040380:23
#040321:14
#040351:0000000000000053005300530053005300530053005300532300000000000000
#040341:00000000343434343434343400000000
#041321:15000000000000003500000000000000000053000000000000000000000000000053000000000000000000000000000025000000000000000000000000000000
#041331:0000000053000000000000000000005300000000530000000000000000000000530000000000530000000000000000000000000000000000000000000000000033000000000053000000000000000000000000000000000000000000000000000000000000000000000000000000000000000000000000000000000000000000
#041341:00000000000000000000000000000000005300000000000000000000000000000000530000000000000000000000000000000000000000000000000000000000
#041390:15000000000000003500000000000000000000000000000000530000000000000000530000000000000000000000000025000000000000000000000000000000
#0413a0:0000000053000000000000000000005300000000530000000000000000000000000000000000000000000000000000005300000000005300000000000000000033000000000053000000000000000000000000000000000000000000000000000000000000000000000000000000000000000000000000000000000000000000
#0413b0:00000000000000000000000000000000000000000000000000005300000000000053000000000000000000000000000000000000000000000000000000000000
#0423b0:000000000000000000000000130033330000230000000000
#043320:000000000000000000000000130033330000230000000000
#0443b0:000000000000000000000000130033330000230000000000
#046380:000000000000000000000000130033330000230000000000
#049390:1434343424000000
#0493a0:00540000005400000000000000000000
#049380:00000054000000540000000000000000
#050320:00001323
#0503b1:00001323
#051361:12320000
#051331:00000032
#052361:00320000
#052331:00000032
#053331:22
#053380:12320000
#0533b0:00000032
#054380:00320000
#0543b0:00000032
#0553b0:22
#059320:14240000
#060380:000000000000130000330023000000000000000000000000
#061350:000000000000130000330023000000000000000000000000
#063380:000000000000130000330023000000000000000000000000
#065320:00130000
#065350:000000000000000033000023000000000000000000000000
#066330:0014
#066340:00000022
#066391:0014
#0663a1:00000022
#0673b1:000000000000000000000000130033330000000000000000
#067381:00000023
#067350:000000000000000000000000000000000000130033330000
#068320:23
#0683b0:000000000000000000000000130033330000000000000000
#068380:00000023
#068351:000000000000000000000000000000000000130033330000
#069321:23
#075361:18
#0783b1:23
