This file was generated by Ched 2.7.0.0.
#TITLE ""
#ARTIST ""
#DESIGNER ""
#DIFFICULTY 0
#PLAYLEVEL
#SONGID ""
#WAVE ""
#WAVEOFFSET 0
#JACKET ""
#REQUEST "ticks_per_beat 480"
#00002: 4
#BPM01: 136
#BPM02: 146
#BPM03: 156
#BPM04: 166
#00008: 01
#06908: 02
#07108: 03
#07308: 04
#TIL00: "0'0:1, 0'960:10000, 2'0:1, 41'960:1, 41'0:10000, 69'0:1.02, 71'0:1.04, 73'0:1.06, 75'0:10000, 77'0:1"
#VOLUME: ""
#HISPEED 00
#MEASUREHS 00
#00612:290000000000000000000014000000000000140000000013
#00616:000000130013000000130000000000130000000000130000
#0061b:130013000000130000130000000013000013000013000000
#00618:000000000000000000000013000000000000130000000000
#00610:41
#00715:190000000000000000000013000000000000130000000000
#0071a:000000000000000000000014000000000000140000000000
#0071b:000000000000000000000000000000000000000000000013
#00717:000000130013000000130000000000130000000000130000
#00712:000013000000130000130000000013000013000013000000
#00812:190000000000000000130000000014000000000000000000
#0081b:000013000000000000000000000000000000000000130000
#00816:0013000000000000
#00818:000000130000001300000000
#0081a:000000000000000000000014000000000000140000000000
#00815:000000000000000000000013000000000013000000000013
#00814:000000000013000000000000000000000000000000000000
#00817:0000001300000000
#00912:0013000000130000
#00918:000000000013000000000000000000000013000000000000
#0091b:0000001300000013
#00915:000000000000000000000013000000000000140000000013
#00917:1715
#00913:00160000
#01417:0000001300000000
#0141b:000000000000001300131300
#01416:000000130000000000000000000000130013000000130000
#01412:240000000000000000000013000000000000000000000000
#0141a:24
#01512:000000130013000000130013000000000000000000000000
#01517:230000130000130013000013000000000000000000000000
#01516:000000000000001300000000
#01514:000000000000000000131300
#0151b:000000000000000000000000000000130013000000000000
#01519:000000000000000000000000000000000000000000130013
#01616:0000001300000013
#0161b:000000000000130013000013000000000000000000000000
#01617:0013000000131300
#01612:230000000000000000000000000013000013000000000000
#01713:001200000000000000000000
#01717:12
#01712:000000000012000000000012000000000012000000000012
#01716:000000140000000000001200
#01715:000000000000161200000000
#01714:000000001200000000180000
#01719:0022000000000000
#0171a:0000002200000000
#0171b:0000000000220000
#0171c:0000000000000022
#01817:000000000000000000130000000013000000000000000000
#01812:000000000000000000000013000000000000000000000000
#0181b:000000130013000000000000000000000000000000000000
#01816:0013000000000000
#01813:2a
#01918:231300
#01915:0000001300000000
#0191b:000000000000000000000013000000000000130000000000
#01912:000000000000130000000013000000000000000000000000
#01916:000000130000000000000000000000000013000000000013
#01914:000000000000001300001300
#01919:0000000000130013
#02015:0000131300130013
#02018:000000130000000013000000000013000000000013000000
#02012:000000130000000000000013000000000000130000000000
#0201b:230000000000130000000013000000000000130000000000
#02316:000000000000000000130000000013000000000013000000
#0231b:130013000000230013000000000000130000000000130000
#02318:000000130013000000000000000000000000000000000000
#02317:000000000000000000000013000000000013000000000013
#02312:000000000000000000000013000000000000230000000000
#02217:000000000000230013000013000013000000000000000000
#02214:000000000000000000000000000000130013000000000000
#02212:000000000013000000130013000000000000000000000000
#02219:000000000000000000231300
#02216:240000000000000000000000000000000000000000130013
#0221b:13
#02619:001300000000000000001300
#02615:0014000000140000
#0261b:000000000000001300000000
#02614:00000014
#02613:0000000000000014
#02616:000000000000140000140014000000000000000000000000
#0261a:000000000013000000000000000000000013000000000000
#02618:260000000000000000000000000000000000000000000013
#02612:26
#02610:41
#0291b:000000000013000000000000000013000000000000000000
#02915:13
#02916:000013000000000000000000000000000000000000120000
#02917:001300
#02912:000000000000250000000013000013000000270000000000
#02918:000000000000000000000000260000000013000000120000
#0291a:2423000000000000
#02913:0000002300000000
#03112:24152600
#03118:000000000012000000240000160000000000000000000000
#0311a:140000000000000000000000000000000012000000000000
#03116:000000000000000000000012000000000000240000240000
#03114:000000240000000000000000000000240000000012000000
#03119:00250000
#03212:260013000000000013000000000000160000000000000000
#03218:260000130000001600000000
#0321b:000000130000000013000000000000000000000000000000
#03213:00000016
#03215:000000000013000000000000000000000000000000000016
#03217:000000000000000000000000000000000016000000000000
#03216:000000000016
#03214:0000000000000016
#0341a:00000000241414142414141424141400
#03418:26
#03412:26
#03410:41
#03516:0012000000000000
#03517:00130000
#03518:00000000000014000000001300130000
#03519:0015
#03514:0000001400000000
#03515:0000000014130013
#0351b:00000013
#03512:24000026
#03513:00240000
#04218:000000140000000000140000000000000000000000140014
#0421a:000000140000001400140000
#04212:250014000014
#04214:000000140014000000000014000000140014000000000000
#04219:25
#04210:41
#04518:000013000013000000000000000000000000000000260000
#04519:000000000000000013000013000000000000000000000000
#0451a:000000000000000000000000000013000013000000000000
#0451b:000000000000000000000000000000000000000013000013
#04512:24252627
#04515:0023000000000000
#04516:0000002400000000
#04517:0000000000250000
#0471b:0013000000130000
#04716:000000230013280000000000000000000000000000000000
#04715:000000000000000000000000000000000013000000150000
#04718:00000014
#04712:280000000000000000130000280000130000000013000000
#04717:000000000000000000230013000000000000000000000000
#0491b:00130000001300000000000000000000
#04917:00000013000000130000000022000000
#04919:0013131300000000
#04916:00130000001300000000000000000000
#04912:00000013000000130000000000000000
#04914:0013131300000000
#05812:14000000000000000000000000000000000000000000001c
#0581a:14
#05819:001400000000000000000000
#05813:00000014000000000000000000000000000000001a1a0000
#05814:000000000000140000000000000000000018180000000000
#05818:000000000014000000000000000000000000000000000000
#05817:001400
#05815:000000000000000000140000000016160000000000000000
#05816:000000000000000000000014140000000000000000000000
#0511c:12
#05117:00120012
#0511f:11
#05217:00120012
#05317:00120012
#05417:00120012
#00312:17
#00317:001700000000000000000000000000000000000000000000000000000000000000000000000000000000000000000000000000000000000000000000000000000000000000000000000000000000000000000000000000000000000000000000000000000000000000000000000000000000000000000000000000000000000000000000000000000000000000000000000000000000000000000000000000000000000000000000000000000000000000000000000000000000000000000000000000000000000000000000000000000000000000000000000000000000000000000000000000000000000000000000000000000000000000000000000000000000000000000000000000000000000000000000000000000000000000000000000000000000000000000000000000000000000000000000000000000000000000000000000000000000000000000000000000000000000000000000000000000000000000000000000000000000000000000000000000000000000000000000000000000000000000000000000000000000000000000000000000000000000000000000000000000000000000000000000000000000000000000000000000000000000000000000000000000000000000000000000000000000000000000000000000000000000000000000000000000000000000000000000000000000000000000000000000000000000000000000000000000000000000000000000000000000000000000000000000000000000000000000000000000000000000000000000000000000000000000000000000000000000000000000000000000000000000000000000000000000000000000000000000000000000000000000000000000000000000000000000000000000000000000000000000000000000000000000000000000000000000000000000000000000000000000000000000000000000000000000000000000000000000000000000000000000000000000000000000000000000000000000000000000000000000000000000000000000000000000000000000000000000000000000000000000000000000000000000000000000000000000000000000000000000000000000000000000000000000000000000000000000000000000000000000000000000000000000000000000000000000000000000000000000000000000000000000000000000000000000000000000000000000000000000000000000000000000000000000000000000000000000000000000000000000000000000000000000000000000000000000000000000000000000000000000000000000000000000000000000000000000000000000000000000000000000000000000000000000000000000000000000000000000000000000000000000000000000000000000000000000000000000000000000000000000000000000000000000000000000000000000000000000000000000000000000000000000000000000000000000000000000000000000000000000000000000000000000000000000000000000000000000000000000000000000000000000000000000000000000000000000000000000000000000000000000000000000000000000000000000000000000000000000000000000000000000000000000000000000000000000000000000000000000000000000000000000000000000000000000000000000000000000000000000000000000000000000000000000000000000000000000000000000000000000000000000000000000000000000000000000000000000000000000000000000000000000000000000000000000000000000000000000000000000000000000000000000000000000000000000000000000000000000000000000000000000000000000000000000000000000000000000000000000000000000000000000000000000000000000000000000000000000000000120000000000000000000000000000000000000000000000000000000000000000000000000000000000000000000000000000000000000000000000000000000000000000000000000000000000000000000000000000000000000000000000000000000000000000000000000000000000000000000000000000000000000000000000000000000000000000000000000000000000000000000000000000000000000000000000000000000000000000000000000000000000000000000000000000000000000000000000000000000000000000000000000000000000000000000000000000000000000000000000000000000000000000000000000000000000000000000000000000000000000000000000000000000000000000000000000000000000000000000000000000000000000000000000000000000000000000000000000000000000000000000000000000000000000000000000000000000000000000000000000000000000000000000000000000000000000000000000000000000000000000000000000000000000000000000000000000000000000000000000000000000000000000000000000000000000000000000000000000000000000000000000000000000000000000000000000000000000000000000000
#0031c:0012
#00212:0012
#0021c:0012
#00412:1212
#00417:00120000
#0041c:0012
#00418:000000000000000000000000000000000000000000000000000000000000000000000000000000000000000000000012
#00518:150000001500000000000000000000000000000000000012160000000000160000000000000000000000000000000000
#00516:000000000000000000000012000000000000000000000012000000000000000000000000000000000000000000000000
#00512:000000000000000000000000000000000000000000000000160000000012160000000000000000000000000000000000
#0051b:00120000000000000000000000000000
#00513:000000000000000000000000150000121500000000000000000000000000000000000000000000000000000000000000
#0051c:000000000000000000000000000000000000000000000000000000000012000000000000000000000000000000000000
#01016:000000000000130000000014000000000000140000140000
#0101b:000000130013000000000000000000000000130013000013
#01019:000000000000000013000000000013000013000000000000
#01012:130013000000000000000013000000000000000000000000
#01014:0000001300130000
#01015:29
#01112:190000130013000000000000000000000000130013000013
#01116:000000000000000000000014000000000000140000140000
#01114:000000000000000013000000000013000013000000000000
#0111b:000013000000000000000013000000000000000000000000
#01119:0000001300130000
#01117:00130000
#01215:19
#01212:000013000000000000000000000013000000000000150000
#01217:0013000000000000
#01219:000000000000130000000000000000000000000000000015
#0121b:000000000000000000130013000000000013000000000000
#01216:000000000000000013000014000014000000140000000000
#01214:000000000013000000000000000000000000000000000000
#01314:1800001300000000
#01319:000000140000000000000013000000120000000000000000
#01315:000000000000160000000000000000000012000000000000
#01313:000000000014000000000000000000000000000000000000
#01316:0000000014000012
#01317:00000012
#01318:000000000000000000000000000000000000000000000012
#02112:000014000014000000000000000000000000000000000000
#02116:000000140000000000000000000000000014240014240014
#02119:001400
#02118:260000000000000000000014000000000000000000000000
#02114:0014
#02117:000000000000001400000000
#02113:0000001400000000
#02115:0000000000240000
#02517:00000012
#02515:260026260016260016260026000000000000000000000000
#02512:002c
#02712:240000000000001300000000
#02717:0014000000140000
#02718:00000014
#02714:001300000000000000001300
#02719:0000000000000014
#02713:000000000013000000000000000000000013000000000000
#02715:000000000000000000000000000000000000000000000013
#02716:000000000000140000140014000000000000000000000000
#0271a:24
#0281b:000000000000001300000000
#02815:0014000000140000
#02814:00000014
#02819:001300000000000000001300
#02813:0000000000000014
#0281a:240000000013000000000000000000000013000000000000
#02818:000000000000000000000000000000000000000000000013
#02816:000000000000140000140014000000000000000000000000
#02812:24
#03014:001300000000000000001300
#03017:0014000000140000
#03012:260000000000001300000000
#03018:26000014
#03019:0000000000000014
#03016:000000000000140000140014000000000000000000000000
#03013:000000000013000000000000000000000013000000000000
#03015:000000000000000000000000000000000000000000000013
#03315:260016260016260016260016000000000000000000000000
#03312:0026
#03318:0026
#03618:0012001400132613
#03616:00130000
#03614:0000001400000000
#03612:28001513
#03617:0014
#03615:00000000000000000000001300130000
#0361a:24
#03619:00240000
#03716:2812000000000000
#03717:00130000
#03718:00000000000014000000130000000013
#03719:0015
#03714:0000001400000000
#03715:00000000000000002400001300000000
#03712:2400000000002413
#03713:00240000
#0371a:00000024
#03816:0000000000000014
#0381a:24000000000024000000240000000014
#03812:27002424
#03817:00232323
#03814:0000002300230000
#03912:26000000241414142414141424141400
#03918:26
#0401a:00000000241414142414141424141400
#04018:26
#04012:26
#04314:0014000000000000
#04312:260000140000001400140000
#0431a:000014000014
#04317:000000000014000000000000000000140014000000000000
#04315:000000000000000000140000000000000000000000140014
#04318:000000140000000000000014000000000000000000000000
#0441a:000000140000001400140000
#04416:000000000014000000140000000000140014000000140014
#04412:000014000014
#04418:0014000000000000
#04414:000000140000000000000014000000000000000000000000
#04419:25
#0461a:000000140000000000000000000014000000140000000000
#04616:000000000014000000140000000000140014000000140014
#04612:280000140000000000000014000000000000000014000000
#04618:00140000
#04614:001400
#05012:2c001c2c001c2c001c2c001c2c0000000000000000000000
#05018:00000021
#05017:00000021
#0481b:000000130000000000130000000013000000000000000000
#04816:0013000000130000
#04818:260000000014000000000014000000000013000000140014
#04812:260000000000130000000014000000000000140000000000
#04814:000014000014
#0481a:00000014
#05516:12
#05518:000000000000000000001200000000001200000000001200000000000000000000120000000000000000000000000000
#0551b:000000000000000000000000000000000000000000000000000000000000000000000000000000000000000000000000000000000000000000000000000000000012000000000000000000000000000000000000000000000012000000000000000000000000000000000000000000000000000000000000000000000000000000000000000000000000000000000000000000000000000000000000000000000000000000000000000000000000000000000000000000000000000000000000
#0551c:00000000000000000000001200000000
#05616:1200000000000012
#05615:000000000012000000000000000000000000000000000000
#05619:000000000012000000000000000000000000000000000000
#05618:0000000000120000
#0561c:000000000000002200000000
#0561a:000000000022
#0571a:14
#05712:14
#05713:0014000000000014
#05719:0014000000000014
#05714:00140014
#05718:0000141312131400
#05715:0000001300130000
#05716:0012
#05913:000000170000000000000000000000000000000000000000000000000000000000000000000000140000000000000000000000000000000000000000000000000000000000000000000000000000000000000000000000000000000000000000000000000000000000000000000000000000000000000000000000000000000000000000000000000000000000000000000000000000000000000000000000001300000000000000000000000000000000000000000000000000000000000000
#05915:000000000000160000000000000000140000000000000000140000000000140000000000000000000000000000140000000000000000000000000000000000000000000000000000000000000000000000000000000000000000000000000000000000000000000000000000000000000000000000000000000000000000000000000000000000000000000000000000130000000000000000000000000000000000000000000000000000000000000000000000000000001300000000000000
#05917:00000015000000140000000000000000000000000000000000000000000000000000000000000000000000000000000000000000000000001400000000000000
#05916:00000000140014000000001400000000000000000000000000000000000000000000000000000000140000000000000000000000000000000000000000000000
#05914:00000000000000000014000014001400240000000000000000000000000000000000000000000000000000000000000000000000000000000000000000000000
#05912:2c0000000000251300000000
#05919:000000000000000000000000250000000014000000000000
#05918:00240000
#0591f:00210000
#06217:000000000013000013000000140014000000000000000000
#06216:000013000000000000000000000000000000000000120000
#06218:0000002400000012
#06215:000000000000140000000013000000000014000000000000
#0621a:00240014
#06214:0024000000000000
#06212:2424
#06412:24152627
#06418:000000000000000000240000160000000012000000000000
#0641a:14
#06417:000000000012000000000012000000000000000000270000
#06416:000000000012
#06419:00250000
#06414:0024000000240000
#06014:001300000000000000000000
#06019:0014000000000000
#06015:000000000013000000000000000000000000000000140000
#06012:00140000
#0601b:000000000000000000130013000013000000000000000000
#06016:2300000000140000
#06013:000000000000000000000000000000000014000000000000
#0601a:240000000013
#06018:000000000000000000000000000000000000130000000013
#06017:00240000
#06010:41
#06119:000013000000000000000000000000000014000000000000
#06113:000000140000000000000000000000000000000013000000
#06118:000000000013000000000000000000000000000000000000
#0611a:00140000
#06112:240000000000000000130013000013000000000000000000
#06116:0000000000140000
#06115:00240013
#06117:23
#0631b:001300000000000000000000
#06316:000000140000240000000000000000140000000000000014
#06314:000000000013000000000000000000000000000000000000
#0631a:00140000
#06312:260000000000000000130013000013000000000000000000
#06319:000000000000000000000000000000000014000000000000
#06313:000000000013
#06317:0000000000000014
#06315:00000013
#06318:26
#06512:260013000000000013000000000000160000170000180000
#06518:260000130000001600000000
#0651b:000000130000000013000000000000000000000000000000
#06515:000000000013000000000000000000000000000000000019
#06517:000000000000000000000000000000000017000000000000
#06516:000000000018
#06712:290000000000000000000014000000000000140000000000
#06714:000000000000000000000000000000000000000000130013
#06716:000000130013000000130000000000130000000000000000
#0671b:230013000000230000130000000013000013000000000000
#06718:000000000000230000231300
#06912:180000000000000000130000000014000000230000000000
#0691b:230013000000000000000000000000000000000000130000
#06916:0013000000000000
#0691a:000000000000000000000014000000000000140000000000
#06918:000000230000001300000000
#06915:000000000000000000000000230000000013000000000000
#06914:000000000013000000000000000000000000000000000013
#06917:0000001300000000
#07012:2313000023130000
#07019:000000000013000000000000000000000013000000000000
#0701b:0000231300002313
#07014:000000000000000000000013000000000000000000000013
#07015:00000015
#07016:1816
#07013:00170000
#0681a:000000000000000000000014000000000000140000000000
#06819:000000000000000000000000000000000000000000130013
#06817:000000130013000000130000000000130000000000000000
#06812:230013000000230000130000000013000013000000000000
#06815:000000000000230000231300
#06816:18
#07114:000000130000000013000013000000000000000000000000
#07115:290000000000000000000000000000130000000013000000
#07118:000000000000000000000000140000000000000000130013
#07116:00140000
#0711a:00000014
#07117:0000001300000000
#07112:23232323
#07110:41
#07212:19000014
#07219:000000130000000013000013000000000000000000000000
#07218:000000000000000000000000000000130000000013000000
#07215:000000000000000000000000000000000000000000130013
#07216:0000141300000000
#07214:0014
#0721b:23232323
#07316:00150000000000000000000000000000
#07313:00001400000000000000001500000000
#07317:00000015000000000000140000000000
#07318:00000000001500000000000024000000
#07315:00000000000014000000000000000015
#07319:25000000000000152500000000001400
#07312:25000000000000002515000000000000
#07314:00000000240000000000000000150000
#06614:001a00000000000000000000
#06613:00000000001b000000000000000000000000000000000000
#06612:2900002a00002b001c2c001c260000000000000000000000
#06618:0026
#07412:001600260016001600260016001600260016001600260016
#07418:261616261616261616261616
#02412:270000000000140000000022000000000000140000000022
#0241a:1414
#02414:0023002300230023
#0241b:00230023
#02419:002200002200002200002200
#02417:000000000022000000000000000000000022000000000000
#02416:0023
#04114:24
#04118:24
#0751c:22
#07512:22
#00012:26
#00018:26
#01452:140000000000000000000013000000000000000000000000
#0145a:14
#01456:0000000000000053
#0165b:000000000000000000000013000000000000000000000000
#01657:00000053
#01656:0000000000000063
#0195b:000000000000000000000013000000000000000000000000
#01952:000000000000000000000013000000000000000000000000
#01852:000000000000000000000013000000000000000000000000
#01853:4a
#02052:000000000000000000000013000000000000130000000000
#0205b:000000000000000000000013000000000000130000000000
#02252:000000000000000000000013000000000000000000000000
#02256:34
#02257:000000000000000000000013000000000000000000000000
#0225b:23
#02658:46
#02652:360000000000000000000044000000000000000000000000
#02656:000000000000640000000044000000000000000000000000
#0295a:44
#02952:00350037
#02958:0000000046000022
#02956:0000000000000022
#03159:00150000
#03152:14151600
#03158:0016
#0315a:14
#01557:000000000000000000000013000000000000000000000000
#03252:365300
#03258:460000000000000000000043000000000000000000000000
#0325b:005300
#03255:000000000000000000000033000000000000000000000000
#03452:56
#0345a:0000440044004454
#03458:46
#03556:0042000000000000
#03557:00430000
#03558:0000004400000000
#03559:0045
#03852:67444444
#0385a:0000004400440000
#0425a:00000014
#04258:0044004400000000
#04254:000000000034000000000034000000000000000000000000
#04752:3838
#04756:00480000
#04852:360000000000000000000064000000000000000000000000
#04858:46
#04959:0063636313000000
#0495b:00230000002300000000000000000000
#04957:00000023000000230000000012000000
#04956:00230000002300000000000000000000
#04952:00000023000000230000000000000000
#04954:0063636313000000
#05058:00000011
#05057:00000011
#00352:57
#00357:005700000000000000000000000000000000000000000000000000000000000000000000000000000000000000000000000000000000000000000000000000000000000000000000000000000000000000000000000000000000000000000000000000000000000000000000000000000000000000000000000000000000000000000000000000000000000000000000000000000000000000000000000000000000000000000000000000000000000000000000000000000000000000000000000000000000000000000000000000000000000000000000000000000000000000000000000000000000000000000000000000000000000000000000000000000000000000000000000000000000000000000000000000000000000000000000000000000000000000000000000000000000000000000000000000000000000000000000000000000000000000000000000000000000000000000000000000000000000000000000000000000000000000000000000000000000000000000000000000000000000000000000000000000000000000000000000000000000000000000000000000000000000000000000000000000000000000000000000000000000000000000000000000000000000000000000000000000000000000000000000000000000000000000000000000000000000000000000000000000000000000000000000000000000000000000000000000000000000000000000000000000000000000000000000000000000000000000000000000000000000000000000000000000000000000000000000000000000000000000000000000000000000000000000000000000000000000000000000000000000000000000000000000000000000000000000000000000000000000000000000000000000000000000000000000000000000000000000000000000000000000000000000000000000000000000000000000000000000000000000000000000000000000000000000000000000000000000000000000000000000000000000000000000000000000000000000000000000000000000000000000000000000000000000000000000000000000000000000000000000000000000000000000000000000000000000000000000000000000000000000000000000000000000000000000000000000000000000000000000000000000000000000000000000000000000000000000000000000000000000000000000000000000000000000000000000000000000000000000000000000000000000000000000000000000000000000000000000000000000000000000000000000000000000000000000000000000000000000000000000000000000000000000000000000000000000000000000000000000000000000000000000000000000000000000000000000000000000000000000000000000000000000000000000000000000000000000000000000000000000000000000000000000000000000000000000000000000000000000000000000000000000000000000000000000000000000000000000000000000000000000000000000000000000000000000000000000000000000000000000000000000000000000000000000000000000000000000000000000000000000000000000000000000000000000000000000000000000000000000000000000000000000000000000000000000000000000000000000000000000000000000000000000000000000000000000000000000000000000000000000000000000000000000000000000000000000000000000000000000000000000000000000000000000000000000000000000000000000000000000000000000000000000000000000000000000000000000000000000000000000000000000000000000000000000000000000000000000000000000000000000000000000000000000000000000000000000000000000000000000220000000000000000000000000000000000000000000000000000000000000000000000000000000000000000000000000000000000000000000000000000000000000000000000000000000000000000000000000000000000000000000000000000000000000000000000000000000000000000000000000000000000000000000000000000000000000000000000000000000000000000000000000000000000000000000000000000000000000000000000000000000000000000000000000000000000000000000000000000000000000000000000000000000000000000000000000000000000000000000000000000000000000000000000000000000000000000000000000000000000000000000000000000000000000000000000000000000000000000000000000000000000000000000000000000000000000000000000000000000000000000000000000000000000000000000000000000000000000000000000000000000000000000000000000000000000000000000000000000000000000000000000000000000000000000000000000000000000000000000000000000000000000000000000000000000000000000000000000000000000000000000000000000000000000000000000000000000000000000000000
#0035c:0052
#00252:0022
#0025c:0022
#00457:00220000
#00452:5252
#0045c:0052
#00458:000000000000000000000000000000000000000000000000000000000000000000000000000000000000000000000022
#00558:550000005500000000000000000000000000000000000022560000000000660000000000120000000000000000000000
#00552:000000000000000000000000000000000000000000000000560000000022660000000000000000000000000000000000
#00556:000000000000000000000022000000000000000000000022000000000000000000000000120000000000000000000000
#0055b:00220000000000000000000000000000
#00553:000000000000000000000000650000226500000000000000000000000000000000000000000000000000000000000000
#0055c:000000000000000000000000000000000000000000000000000000000022000000000000000000000000000000000000
#00652:390000000000000000000014000000000000140000000000
#00755:49
#0075a:000000000000000000000014000000000000140000000000
#00852:390000000000001400000000
#0085a:000000000000000000000014000000000000140000000000
#01056:000000000000000000000014000000000000140000000000
#01055:49
#01152:39
#01156:000000000000000000000014000000000000140000000000
#01255:49
#01256:000000000000000000000014000014000000140000000000
#01354:18
#01355:00160000
#01356:0014
#01357:00000012
#01757:42
#01756:00440000
#01755:0046
#01754:00000048
#00955:00000014
#00957:1715
#00953:00160000
#02152:000000000014000000000000000000000000000000000000
#02552:006c
#03056:000000000000540000000034000000000000000000000000
#03052:36
#03058:46
#0305a:000000000000000000000034000000000000000000000000
#02856:000000000000640000000044000000000000000000000000
#02852:000000000000000000000044000000000000000000000000
#02756:000000000000540000000034000000000000000000000000
#0275a:000000000000000000000034000000000000000000000000
#03658:0032000000000000
#03656:00330000
#03654:0000003400000000
#03652:0035
#03756:0042000000000000
#03757:00430000
#03758:0000004400000000
#03759:0045
#03952:36343434
#03958:66
#04058:46
#04052:56
#0405a:00444444
#04158:00000016
#04152:00000016
#04354:0034000000000000
#04357:000000000044000000000000000000000000000000000000
#04355:0000003400000000
#04358:000000000000000000000044000000000000000000000000
#04352:00000014
#0445a:00000014
#04458:0044000000000000
#04456:000000000034000000440000000000000000000000000000
#04454:000000000000000000000034000000000000000000000000
#04552:34353637
#04652:380000000000000000000014000000000000000000000000
#0465a:0014000000001400
#04656:000000000014000000140000000000000000000000000000
#02352:000000000000000000000013000000000000000000000000
#02357:000000000000000000000013000000000000000000000000
#05556:52
#05558:00000000000000000000005200000000
#0555c:00000000000000000000001200000000
#05652:12
#05659:000000000012000000000000000000000000000000000000
#0565c:000000000000004200000000
#0565a:000000000042
#05953:00270000000000000000000000240000000000000000000000000000000000000000000000000000000000000000000000000000000000000000000000000000
#05957:00000025000000240000000000000000000000000000000000000000000000000000000000000000000000000000000000000000000000000000000000000000
#05955:00005600002400005400540000000024000000000000000000000000000000000000000000000000000000000000000000000000000000000000000000000000
#05954:00000000000000000024000054005400340000000000000000000000000000000000000000000000000000000000000000000000000000000000000000000000
#05956:00000000540054000000002400000000000000000000000000000000000000000000000000000000000000000000000000000000000000000000000000000000
#05952:5c
#05958:00440000
#06452:14151600
#06458:0016
#0645a:14
#06459:00150000
#06052:00540000
#06057:000000000000000000000014000000000000000000000000
#0605b:000000000000000000000013000000000000000000000000
#06258:0000000000000022
#06256:0000000000000022
#06252:3434
#0625a:00440044
#06257:000000000000004400000000
#06352:360000000000000000000013000000000000000000000000
#06358:46
#0635a:00640000
#06355:000000000000000000000014000000000000000000000000
#0615a:00640000
#06152:000000000000000000000013000000000000000000000000
#06155:000000000000000000000014000000000000000000000000
#06552:365300
#0655b:005300
#06558:460000000000000000000043000000000000000000000000
#06555:000000000000000000000033000000000000000000000000
#0665d:00000011
#06657:00000011
#03358:00000046
#03352:00000036
#06752:390000000000000000000014000000000000140000000000
#06952:380000000000001400000000
#0695a:000000000000000000000014000000000000140000000000
#07055:00000015
#07056:1816
#07053:00170000
#07155:49
#07156:00440000
#07158:0044
#0715a:00000044
#0685a:000000000000000000000014000000000000140000000000
#06856:48
#07252:39000034
#07256:00340000
#07254:0034
#000320:16
#001320:56
#002320:5252
#003320:5752
#004320:5252
#004370:00520000
#004360:000000000000000000000000000000000000000000000000000000000000000000000000000000000000000000000052
#005360:000000000000000000000052000000000052000000000052000000000000005200000000220000000000000000000000
#005330:000000000000000000000000555200525500000000000000000000000000000000000000000000000000000000000000
#005320:000000000000000000000000000000000000000000000000565200000052560000000000000000000000000000000000
#000381:16
#001381:56
#0023c1:5252
#003371:005700000000000000000000000000000000000000000000000000000000000000000000000000000000000000000000000000000000000000000000000000000000000000000000000000000000000000000000000000000000000000000000000000000000000000000000000000000000000000000000000000000000000000000000000000000000000000000000000000000000000000000000000000000000000000000000000000000000000000000000000000000000000000000000000000000000000000000000000000000000000000000000000000000000000000000000000000000000000000000000000000000000000000000000000000000000000000000000000000000000000000000000000000000000000000000000000000000000000000000000000000000000000000000000000000000000000000000000000000000000000000000000000000000000000000000000000000000000000000000000000000000000000000000000000000000000000000000000000000000000000000000000000000000000000000000000000000000000000000000000000000000000000000000000000000000000000000000000000000000000000000000000000000000000000000000000000000000000000000000000000000000000000000000000000000000000000000000000000000000000000000000000000000000000000000000000000000000000000000000000000000000000000000000000000000000000000000000000000000000000000000000000000000000000000000000000000000000000000000000000000000000000000000000000000000000000000000000000000000000000000000000000000000000000000000000000000000000000000000000000000000000000000000000000000000000000000000000000000000000000000000000000000000000000000000000000000000000000000000000000000000000000000000000000000000000000000000000000000000000000000000000000000000000000000000000000000000000000000000000000000000000000000000000000000000000000000000000000000000000000000000000000000000000000000000000000000000000000000000000000000000000000000000000000000000000000000000000000000000000000000000000000000000000000000000000000000000000000000000000000000000000000000000000000000000000000000000000000000000000000000000000000000000000000000000000000000000000000000000000000000000000000000000000000000000000000000000000000000000000000000000000000000000000000000000000000000000000000000000000000000000000000000000000000000000000000000000000000000000000000000000000000000000000000000000000000000000000000000000000000000000000000000000000000000000000000000000000000000000000000000000000000000000000000000000000000000000000000000000000000000000000000000000000000000000000000000000000000000000000000000000000000000000000000000000000000000000000000000000000000000000000000000000000000000000000000000000000000000000000000000000000000000000000000000000000000000000000000000000000000000000000000000000000000000000000000000000000000000000000000000000000000000000000000000000000000000000000000000000000000000000000000000000000000000000000000000000000000000000000000000000000000000000000000000000000000000000000000000000000000000000000000000000000000000000000000000000000000000000000000000000000000000000000000000000000000000000000000000000000000520000000000000000000000000000000000000000000000000000000000000000000000000000000000000000000000000000000000000000000000000000000000000000000000000000000000000000000000000000000000000000000000000000000000000000000000000000000000000000000000000000000000000000000000000000000000000000000000000000000000000000000000000000000000000000000000000000000000000000000000000000000000000000000000000000000000000000000000000000000000000000000000000000000000000000000000000000000000000000000000000000000000000000000000000000000000000000000000000000000000000000000000000000000000000000000000000000000000000000000000000000000000000000000000000000000000000000000000000000000000000000000000000000000000000000000000000000000000000000000000000000000000000000000000000000000000000000000000000000000000000000000000000000000000000000000000000000000000000000000000000000000000000000000000000000000000000000000000000000000000000000000000000000000000000000000000000000000000000000000000
#0033c1:0052
#0043c1:5252
#004381:000000000000000000000000000000000000000000000000000000000000000000000000000000000000000000000052
#005381:550000005552000000000000000000000000000000000052560000000000565200000000220000000000000000000000
#0053b1:005200520000000000000000000000000000000000000000000000000000000000000000000000000000000000000000
#0053c1:000000000000000000000000000000000000000000000000005200000052000000000000000000000000000000000000
#0143b1:0013000000000000
#014381:00230000
#014350:00130000
#014320:0000002300000000
#014360:0000000000000013
#015320:23
#016320:0013000000000000
#016360:00230000
#016370:00000013
#0163b0:0000000000000023
#016361:0000000000000013
#017321:23
#018361:00130000
#018321:0000002300000000
#018321:0000000000130000
#018351:00000023
#018380:00000013
#0183b0:0000000000000023
#018321:0000000000000013
#019351:23
#0193b1:0013000000000000
#019371:00230000
#0223b1:13
#022371:000000000023000000000000000000000000000000000000
#025321:001c
#0253c1:00000022
#026361:00140000
#026321:000000000000000000540024000000000000000000000000
#027361:00140000
#0273a1:000000000000000000540024000000000000000000000000
#028361:00140000
#028321:000000000000000000540024000000000000000000000000
#029361:0000000000000012
#030321:26
#029380:0000000000000012
#030380:26
#030360:00140000
#0303a0:000000000000000000540024000000000000000000000000
#032320:001300
#032350:000000000000000000000023000000000000000000000000
#0323b1:001300
#032381:000000000000000000000023000000000000000000000000
#033381:00001626
#033320:00001626
#034320:16
#034350:005500000000550055000000000000000000000000000000000000000000000000000000000000000000000000000000000000000000000000000000000000000000000000000000000000000000000000000000000000000000000000000000
#034330:005700000000000000000000000000000000000000000000000000000000000000000000000000000000000000000000
#034360:000000540000000000005400540000000000000000000000000000000000000000000000000000000000000000000000000000000000000000000000000000000000000000000000000000000000000000000000000000000000000000000000
#034340:005600000000000000000000000000000000000000000000
#034370:000000000053005300000000000053005300530053005300000000000000000000000000000000000000000000000000000000000000000000000000000000000000000000000000000000000000000000000000000000000000000000000000
#034380:000000000000000000520052005200520052005200520052220000000000000000000000000000000000000000000000000000000000000000000000000000000000000000000000000000000000000000000000000000000000000000000000
#0343a0:0000000000000014
#035360:22
#035321:145353535353240000000000000000000000000000000000000000000000000000000000000000000000000000000000
#035331:005300530053005300530053000000000000000000000000000000000000000000000000000000000000000000000000000000000000000000000000000000000000000000000000000000000000000000000000000000000000000000000000
#0363a1:145300530053005300530053240000000000000000000000000000000000000000000000000000000000000000000000000000000000000000000000000000000000000000000000000000000000000000000000000000000000000000000000
#0363b1:005353535353000000000000000000000000000000000000000000000000000000000000000000000000000000000000
#037321:145353535353240000000000000000000000000000000000000000000000000000000000000000000000000000000000
#037331:005300530053005300530053000000000000000000000000000000000000000000000000000000000000000000000000000000000000000000000000000000000000000000000000000000000000000000000000000000000000000000000000
#037351:000000000000000000000000000000000000000000000000145300000000000000000000000000000000000000000000
#037341:000000000000000000000000000000000000000000000000000000000000000000000000000000000000000000000000005300005300000000000000000000000000000000000000000000000000000000000000000000000000000000000000
#037331:000000000000000000000000000000000000000000000000000000000000000000000000000000000000000000000000000000530000530053005300000000000000000000000000000000000000000000000000000000000000000000000000
#037321:000000000000000000000000000000000000000000000000000000000000000000000000000000000000000000000000000000000053005300530053230000000000000000000000000000000000000000000000000000000000000000000000
#0373a1:000000000000000000000000000000000000000000000000000000000000000000000000145300000000000000000000
#037391:000000000000000000000000000000000000000000000000000000000000000000000000000000000000000000000000000000000000000000000000000000000000000000000000005300005300000000000000000000000000000000000000
#037381:000000000000000000000000000000000000000000000000000000000000000000000000000000000000000000000000000000000000000000000000000000000000000000000000000000530000530053005300000000000000000000000000
#037371:000000000000000000000000000000000000000000000000000000000000000000000000000000000000000000000000000000000000000000000000000000000000000000000000000000000053005300530053230000000000000000000000
#038321:17240000
#038370:000000000000000000000000135300000000000000000000000000000000000000000000000000000000000000000000
#038380:000000000000000000000000000000000000000000000000005300005300000000000000000000000000000000000000000000000000000000000000000000000000000000000000000000000000000000000000000000000000000000000000
#038390:0000000000000000005323000000000000000000000000000000000000000000
#0383a0:000000000000000000000000000000000000000000000000000000000053000000000000000000000000000000000000000000000000000000000000000000000000000000000000000000000000000000000000000000000000000000000000
#038340:000000000000000000000000000000000000135300000000000000000000000000000000000000000000000000000000
#038350:000000000000000000000000000000000000000000000000000000000000000000000000005300005300000000000000000000000000000000000000000000000000000000000000000000000000000000000000000000000000000000000000
#038360:0000000000000000000000000053230000000000000000000000000000000000
#038370:000000000000000000000000000000000000000000000000000000000000000000000000000000000053000000000000000000000000000000000000000000000000000000000000000000000000000000000000000000000000000000000000
#038370:000000000000000000000000000000000000000000000000135300000000000000000000000000000000000000000000
#038380:000000000000000000000000000000000000000000000000000000000000000000000000000000000000000000000000005300005300000000000000000000000000000000000000000000000000000000000000000000000000000000000000
#038390:0000000000000000000000000000000000532300000000000000000000000000
#0383a0:000000000000000000000000000000000000000000000000000000000000000000000000000000000000000000000000000000000053000000000000000000000000000000000000000000000000000000000000000000000000000000000000
#038340:000000000000000000000000000000000000000000000000000000000000135300000000000000000000000000000000
#038350:000000000000000000000000000000000000000000000000000000000000000000000000000000000000000000000000000000000000000000000000005300005300000000000000000000000000000000000000000000000000000000000000
#038360:0000000000000000000000000000000000000000005323000000000000000000
#038370:000000000000000000000000000000000000000000000000000000000000000000000000000000000000000000000000000000000000000000000000000000000053000000000000000000000000000000000000000000000000000000000000
#038370:000000000000000000000000000000000000000000000000000000000000000000000000135300000000000000000000
#038380:000000000000000000000000000000000000000000000000000000000000000000000000000000000000000000000000000000000000000000000000000000000000000000000000005300005300000000000000000000000000000000000000
#038390:0000000000000000000000000000000000000000000000000053230000000000
#0383a0:000000000000000000000000000000000000000000000000000000000000000000000000000000000000000000000000000000000000000000000000000000000000000000000000000000000053000000000000000000000000000000000000
#039380:16
#039360:005557545653555355525452545253525352535253525352220000000000000000000000000000000000000000000000000000000000000000000000000000000000000000000000000000000000000000000000000000000000000000000000
#040320:16
#040350:005500000000550055000000000000000000000000000000000000000000000000000000000000000000000000000000000000000000000000000000000000000000000000000000000000000000000000000000000000000000000000000000
#040330:005700000000000000000000000000000000000000000000000000000000000000000000000000000000000000000000
#040360:000000540000000000005400540000000000000000000000000000000000000000000000000000000000000000000000000000000000000000000000000000000000000000000000000000000000000000000000000000000000000000000000
#040340:005600000000000000000000000000000000000000000000
#040370:000000000053005300000000000053005300530053005300000000000000000000000000000000000000000000000000000000000000000000000000000000000000000000000000000000000000000000000000000000000000000000000000
#040380:000000000000000000520052005200520052005200520052220000000000000000000000000000000000000000000000000000000000000000000000000000000000000000000000000000000000000000000000000000000000000000000000
#041380:140000000000000000000000000000000000000000000000000000000000000000000000000000000000000000000000000000005400000054000000540000005400000000000000000000000000000000000000000000000000000000000000360000560000560000560000560000560000560000560000560000560000560000560000560000560000560000560000260000000000000000000000000000000000000000000000000000000000000000000000000000000000000000000000
#041390:005400000000000000000000000000000000000000000000000000000000000000000000000000000000000000000000000000000000000000000000000000000000000000000000000000000000000000000000000000000000000000000000000000000000000000000000000000000000000000000000000000000000000000000000000000000000000000000000000000000000000000000000000000000000000000000000000000000000000000000000000000000000000000000000000000000000000000000000000000000000000000000000000000000000000000000000000000000000000000000000000000000000000000000000000000000000000000000000000000000000000000000000000000000000000000000000000000000000000000000000000000000000000000000000000000000000000000000000000000000000000000000000000000000000000000000000000000000000000000000000000000000000000000000000000000000000000000000000000000000000000000000000000000000000000000000000000000000000000000000000000000000000000000000000000000000000000000000000000000000000000000000000000000000000000000000000000000000000000000000000540000000000000000000000000000000000000000000000000000000000000000000000000000000000000000000000000000000000000000000000000000000000000000000000000000000000000000000000000000000000000000000000000000000000000000000000000000000000000000000000000000000000000000000000000000000000000000000000000000000000000000000000000000000000000000000000000000000000000000000000540000000000000000000000000000000000000000000000000000000000000000000000000000000000000000000000000000000000000000000000540000000000000000000000000000000000000000000000000000000000000000000000000000000000000000000000000000000000000000000000000000000000000000000000000000000000000000000000000000000000000000000000000000005400000000000000000000000000000000000000000000000000000000000000000000000000000054000000000000000000000000000000000000000000000000000000000000000000000000000000000000000000000000000000000000000000000000000000000000000000000000000000000000000000000000000000000054000000000000000000000000000000000000000000000000540000000000000000000000000000000000000000000000000000000000540000000000000000000000000000000000000000000000000000000000540000000000000000000000000000000000000000000000000000000000540000000000000000000000000000000000000000000000000000000000540000000000000000000000000000000000000000000000000000000000540000000000000000000000000000000000000000000000000000000000540000000000000000000000000000000000000000000000000000000000540000000000000000000000000000000000000000000000000000000000540000000000000000000000000000000000000000000000000000000000540000000000000000000000000000000000000000000000000000000000540000000000000000000000000000000000000000000000000000000000540000000000000000000000000000000000000000000000000000000000540000000000000000000000000000000000000000000000000000000000540000000000000000000000000000000000000000000000000000000000540000000000000000000000000000000000000000000000000000000000540000000000000000000000000000000000000000000000000000000000000000000000000000000000000000000000000000000000000000000000000000000000000000000000000000000000000000000000000000000000000000000000000000000000000000000000000000000000000000000000000000000000000000000000000000000000000000000000000000000000000000000000000000000000000000000000000000000000000000000000000000000000000000000000000000000000000000000000000000000000000000000000000000000000000000000000000000000000000000000000000000000000000000000000000000000000000000000000000000000000000000000000000000000000000000000000000000000000000000000000000000000000000000000000000000000000000000000000000000000000000000000000000000000000000000000000000000000000000000000000000000000000000000000000000000000000000000000000000000000000000000000000000000000000000000000000000000000000000000000000000000000000000000000000000000000000000000000000000000000000000000000000000000000000000000000000000000000000000000000000000000000000000000000000000000
#0413a0:000000000000000000000000000000000000000000000000005400540054005400000000000000000000540000000000000000000000000000000000000000000000000000000000000000000000000000000000000000000000000000000000
#041341:140000000000340000000000000000000000005454545400000000000000000000000000000000000000000000000000
#041331:000000000000000000000000000000000000000000000000000000000000000000000000000000000000000000000000000000000000000000000000000000000000000000000000000000000000000000000000000000000000000000000000000000000000000000000000000000000000000000000000000000000000000000000000000000000000000000000000000000000000000000000000000000000000000000000000000000000000000000000000000000000000000000000000000000000000000000000000000000000000000000000000000000000000000000000000000000000000000000000000005400000000000000000000000000000000000000000000000000000000000000000000000000000000000000000000000000000000000000000000000000000000000000000000000000000000000000000000000000000000000000000000000000000000000000000000000000000000000000000000000000000000000000000000000000000000000000000000000000000000000000000000000000000000000000000000000000000000000000000000000000000000000000000000000000000000000000000000000000000000000000000000000000000000000000000000000000000000000000000000540000000000000000000000000000000000000000000000000000000000000000000000000000000000000000000000000000000000000000000000000000000000000000000000000000000000000000000000000000000000000000000000000000005400000000000000000000000000000000000000000000000000000000000000000000000000000054000000000000000000000000000000000000000000000000000000000000000000000000000000000000000000000000000000000000000000000000000000000000000000000000000000000000000000000000000000000000000000000000000000540000000000000000000000000000000000000000000000000000000000000000000000000000000000000000000000000000000000000000000000000000000000000000000000000000000000000000000000000000000000000000000000000000000000000000000000000000000000000000000000000000000000000000000000000000000000000000000000000000000000000000000000000000000000000000000000000000000000000000000000540000000000000000000000000000000000000000000000000000000000000000000000000000000000000000000000000054000000000000000000000000000000000000000000000000540000000000000000000000000000000000000000000000000000000000540000000000000000000000000000000000000000000000000000000000540000000000000000000000000000000000000000000000000000000000540000000000000000000000000000000000000000000000000000000000540000000000000000000000000000000000000000000000000000000000540000000000000000000000000000000000000000000000000000000000540000000000000000000000000000000000000000000000000000000000540000000000000000000000000000000000000000000000000000000000540000000000000000000000000000000000000000000000000000000000540000000000000000000000000000000000000000000000000000000000540000000000000000000000000000000000000000000000000000000000540000000000000000000000000000000000000000000000000000000000540000000000000000000000000000000000000000000000000000000000540000000000000000000000000000000000000000000000000000000000540000000000000000000000000000000000000000000000000000000000540000000000000000000000000000000000000000000000000000000000000000000000000000000000000000000000000000000000000000000000000000000000000000000000000000000000000000000000000000000000000000000000000000000000000000000000000000000000000000000000000000000000000000000000000000000000000000000000000000000000000000000000000000000000000000000000000000000000000000000000000000000000000000000000000000000000000000000000000000000000000000000000000000000000000000000000000000000000000000000000000000000000000000000000000000000000000000000000000000000000000000000000000000000000000000000000000000000000000000000000000000000000000000000000000000000000000000000000000000000000000000000000000000000000000000000000000000000000000000000000000000000000000000000000000000000000000000000000000000000000000000000000000000000000000000000000000000000000000000000000000000000000000000000000000000000000000000000000000000000000000000000000000000000000000000000000000000000000000000000000000000000000000000000000000000
#041321:000000000000000000000000000000000000000000000000000000000000000000000000000000000000000000000000000000000000000000000000540000000000000000000000000054000000540000005400000054000000000000000000360000560000560000560000560000560000560000560000560000560000560000560000560000560000560000560000260000000000000000000000000000000000000000000000000000000000000000000000000000000000000000000000
#048321:000000000000000000000014000000000000000000000000
#048361:000000000000002300000000
#0493b1:13530000005300000000000000000000
#049391:0033333323000000
#049371:00000053000000530000000000000000
#049360:13530000005300000000000000000000
#049340:0033333323000000
#049320:00000053000000530000000000000000
#051360:1200000000000052005200000000000000000000000000520052000000000000
#051340:00320032
#052360:0000000000000052005200000000000000000000000000520052000000000000
#052340:00320032
#053360:22
#053381:1200000000000052005200000000000000000000000000520052000000000000
#0533a1:00320032
#054381:0000000000000052005200000000000000000000000000520052000000000000
#0543a1:00320032
#055381:22
#055360:12
#055340:000000000022000000000000000000000000000000000000
#055380:00000000000000000000001200000000
#056320:22
#059320:1c
#059330:00570000000000000000000000540000000000000000000000000000000000000000000000000000000000000000000000000000000000000000000000000000
#059350:00005600005400005400540000000054000000000000000000000000000000000000000000000000000000000000000000000000000000000000000000000000
#059370:00000055000000540000000000000000000000000000000000000000000000000000000000000000000000000000000000000000000000000000000000000000
#059360:00000000540054000000005400000000000000000000000000000000000000000000000000000000000000000000000000000000000000000000000000000000
#059340:00000000000000000054000054005400240000000000000000000000000000000000000000000000000000000000000000000000000000000000000000000000
#060320:00140000
#060370:000000000000000000540024000000000000000000000000
#0613a0:00140000
#061350:000000000000000000540024000000000000000000000000
#061370:0000000000000014
#062370:24
#062360:0000000000000012
#063320:26
#062381:0000000000000012
#063381:26
#0633a1:00140000
#063351:000000000000000000540024000000000000000000000000
#065321:001300
#065351:000000000000000000000023000000000000000000000000
#0653b0:001300
#065380:000000000000000000000023000000000000000000000000
#066380:000000000000000000000000000000000000000000000000000000000000000000000000000000000000000000000000000000000000000000000000000000000000000000000000000000000000000000000000000000000000000000000000000000000000000000000000000000000000000000000000000000000000000000000000000000000000000000000000000000000000000000000000000000000000000000000000000000000000000000000000000000000000000000000000000000000000000000000000000000000000000000000000000000000000000000000000000000000000000000000000000000000000000000000000000000000000000000000000000000000000000000000000000000000000000000000000000000000000000000000000000000000000000000000000000000000000000000000000000000000000000000000000000000000000000000000000000000000000000000000000000000000000000000000000000000000000000000000000000000000000000000000000000000000000000000000000000000000000000000000000000000000000000000000000000000000000000000000000000000000000000000000000000000000000000000000000000000000000000000000000000000000000000000000000000000000000000000000000000000000000000000000000000000000000000000000000000000000000000000000000000000000000000000000000000000000000000000000000000000000000000000000000000000000000000000000000000000000000000000000000000000000000000000000000000000000000000000000000000000000000000000000000000000000000000000000000000000000000000000000000000000000000000000000000000000000000000000000000000000000000000000000000000000000000000000000000000000000000000000000000000000000000000000000000000000000000000000000000000000000000000000000000000000000000000000000000000000000000000000000000000000000000000000000000000000000000000000000000000000000000000000000000000000000000000000000000000000000000000000000000000000000000000000000000000000000000000000000000000000000000000000000000000000000000000000000000000000000000000000000000000000000000000000000000000000000000000000000000000000000000000000000000000000000000000000000000000000000000000000000000160000000000000000000000000000000000000000000000000000000000000000000000000000000000000000000000000000000000000000000000000000000000000000000000000000000000000000000000000000000000000000000000000000000000000000000000000000000000000000000000000000000000000000000000000000000000000000000000000000000000000000000000000000000000000000000000000000000000000000000000000000000000000000000000000000000000000000000000000000000000000000000000000000000000000000000000000000000000000000000000000000000000000000000000000000000000000000000000000000000000000000000000000000000000000000000000000000000000000000000000000000000000000000000000000000000000000000000000000000000000000000000000000000000000000000000000000000000000000000000000000000000000000000000000000000000000000000000000000000000000000000000000000000000000000000000000000000000000000000000000000000000000000000000000000000000000000000000000000000000000000000000000000000000000000000000000000000000000000000000056000000000000000000000000000000000000000000000000000000000000000000000000000000000000000000000000000000000000000000000000000000000000000000000000000000000000000000000000000000000000000000000000000000000000000000000000000000000000000000000000000000000000000000000000000000000000000000000000000000000000000000000000000000000000000000000000000000000000000000000000000000000000000000000000000000000000000000000000000000000000000000000000000000000000000000000000000000000000000000000000000000000000000000000000000000000000000000000000000000000000000000000000000000000000000000000000000000000000000000000000000000000000000000000000000000000000000000000000000000000000000000000000000000000000000000000000000000000000000000000000000000000000000000000000000000000000000000000000000000000000000000000000000000000000000000000000000000000000000000000000000000000000000000000000000000000000000000000000000000000000000000000000000000000000000000000000000000000000000000000000
#0663d0:00000021
#066321:000000000000000000000000000000000000000000000000000000000000000000000000000000000000000000000000000000000000000000000000000000000000000000000000000000000000000000000000000000000000000000000000000000000000000000000000000000000000000000000000000000000000000000000000000000000000000000000000000000000000000000000000000000000000000000000000000000000000000000000000000000000000000000000000000000000000000000000000000000000000000000000000000000000000000000000000000000000000000000000000000000000000000000000000000000000000000000000000000000000000000000000000000000000000000000000000000000000000000000000000000000000000000000000000000000000000000000000000000000000000000000000000000000000000000000000000000000000000000000000000000000000000000000000000000000000000000000000000000000000000000000000000000000000000000000000000000000000000000000000000000000000000000000000000000000000000000000000000000000000000000000000000000000000000000000000000000000000000000000000000000000000000000000000000000000000000000000000000000000000000000000000000000000000000000000000000000000000000000000000000000000000000000000000000000000000000000000000000000000000000000000000000000000000000000000000000000000000000000000000000000000000000000000000000000000000000000000000000000000000000000000000000000000000000000000000000000000000000000000000000000000000000000000000000000000000000000000000000000000000000000000000000000000000000000000000000000000000000000000000000000000000000000000000000000000000000000000000000000000000000000000000000000000000000000000000000000000000000000000000000000000000000000000000000000000000000000000000000000000000000000000000000000000000000000000000000000000000000000000000000000000000000000000000000000000000000000000000000000000000000000000000000000000000000000000000000000000000000000000000000000000000000000000000000000000000000000000000000000000000000000000000000000000000000000000000000000000000000000000000000160000000000000000000000000000000000000000000000000000000000000000000000000000000000000000000000000000000000000000000000000000000000000000000000000000000000000000000000000000000000000000000000000000000000000000000000000000000000000000000000000000000000000000000000000000000000000000000000000000000000000000000000000000000000000000000000000000000000000000000000000000000000000000000000000000000000000000000000000000000000000000000000000000000000000000000000000000000000000000000000000000000000000000000000000000000000000000000000000000000000000000000000000000000000000000000000000000000000000000000000000000000000000000000000000000000000000000000000000000000000000000000000000000000000000000000000000000000000000000000000000000000000000000000000000000000000000000000000000000000000000000000000000000000000000000000000000000000000000000000000000000000000000000000000000000000000000000000000000000000000000000000000000000000000000000000000000000000000000000000056000000000000000000000000000000000000000000000000000000000000000000000000000000000000000000000000000000000000000000000000000000000000000000000000000000000000000000000000000000000000000000000000000000000000000000000000000000000000000000000000000000000000000000000000000000000000000000000000000000000000000000000000000000000000000000000000000000000000000000000000000000000000000000000000000000000000000000000000000000000000000000000000000000000000000000000000000000000000000000000000000000000000000000000000000000000000000000000000000000000000000000000000000000000000000000000000000000000000000000000000000000000000000000000000000000000000000000000000000000000000000000000000000000000000000000000000000000000000000000000000000000000000000000000000000000000000000000000000000000000000000000000000000000000000000000000000000000000000000000000000000000000000000000000000000000000000000000000000000000000000000000000000000000000000000000000000000000000000000000000000
#066371:00000021
#0753c1:12
#0763c1:52
#077381:56
#078381:26
#075320:12
#076320:52
#077320:56
#078320:26
