This file was generated by Ched 2.7.0.0.
#TITLE ""
#ARTIST ""
#DESIGNER ""
#DIFFICULTY 0
#PLAYLEVEL
#SONGID ""
#WAVE ""
#WAVEOFFSET 0
#JACKET ""
#REQUEST "ticks_per_beat 480"
#00002: 4
#BPM01: 136
#BPM02: 146
#BPM03: 156
#BPM04: 166
#00008: 01
#06908: 02
#07108: 03
#07308: 04
#TIL00: ""
#VOLUME: ""
#HISPEED 00
#MEASUREHS 00
#00518:1414
#00514:00140000
#00618:0014
#00614:00000014
#00612:24
#00610:41
#0071a:14
#00714:0014
#00718:00000014
#00812:14
#00818:0014
#00814:00000014
#02412:14
#02418:0014
#02212:14
#02614:00140000
#02618:0014
#02612:00000014
#0261a:24
#02610:41
#0271a:14001414
#02714:00140000
#02812:14
#02818:00140000
#02814:0014
#0281a:00000014
#02912:1414
#02918:00140014
#03012:14
#03018:00140000
#03014:0014
#0301a:00000014
#0321a:14
#03214:00140000
#03218:0014
#03212:00000014
#03114:00000014
#03112:24
#03116:00240000
#0311a:0024
#03712:14
#03718:00140000
#03714:00002424
#03518:00140000
#03514:0014
#03914:00140000
#03918:0014
#04212:00140000
#04210:41
#04314:14
#0431a:00140000
#04418:14
#04414:00140000
#04618:00140000
#04614:0014
#0461a:00000014
#04612:24
#04814:00140000
#04818:0014
#04812:00000014
#04918:14140000
#04914:0014001400000000
#05914:0014
#05918:00000014
#0591a:24
#0591f:00210000
#06012:14140000
#06018:0014
#06014:00000014
#06010:41
#0611a:14140000
#06114:0014
#06118:00000014
#0631a:00140000
#06314:0014
#06318:00000014
#06312:24
#06412:24000014
#06416:00240000
#0641a:0024
#06518:14001414
#06514:00140000
#0511a:14340034
#0511f:11
#05312:14340034
#05518:14343434
#0551a:0000000000000014
#05712:0000000000000014
#05714:14343434
#06612:2414
#06718:00140014
#06712:0014
#06814:1414
#0681a:00140014
#06912:14
#06918:00140000
#06914:0014
#0691a:00000014
#07012:14
#07014:00140000
#07018:0014
#0701a:00000014
#07114:1414
#07118:00140014
#07110:41
#07212:1414
#0721a:00140014
#07312:14
#07314:0000001400000000
#0741a:14
#07418:0000001400000000
#01014:0014
#01018:00000014
#01112:14
#01118:0014
#01114:00000014
#0121a:14
#01214:0014
#01218:00000014
#01418:0014
#01512:1414
#01618:14
#01614:0014
#0171a:1414
#01812:14
#01818:0014
#01914:1414
#0201a:14
#02014:0014
#0231a:14
#0361a:14
#03614:00140000
#03618:0014
#04012:14
#04018:00140000
#04014:0014
#0331a:24
#0381a:24
#03412:24
#03410:41
#0411a:24
#04512:24240000
#0451a:00002424
#04712:24
#04716:00240000
#0471a:0024
#05014:24242400
#05018:0024002400000000
#06212:24240000
#0621a:00002424
#07514:24
#0521a:00340000
#05412:00340000
#05618:34343400
#05814:34343400
#00919:00340000
#00918:00003434
#01313:00340000
#01314:00003434
#00652:14
#02252:54
#02552:0014
#0265a:14
#03052:14
#0325a:14
#0335a:00000014
#04258:14
#04652:14
#0485a:14
#05054:00000014
#04958:00000014
#0595a:00140000
#06352:14
#0515a:54
#05352:54
#05558:54
#0555a:0000000000000024
#05752:0000000000000024
#05754:64
#06652:0064
#06754:14
#07352:54
#07354:0000002400000000
#0745a:64
#07458:0000002400000000
#01058:14
#01454:14
#0235a:64
#001390:15
#0023a0:24
#001321:15
#002321:24
#0033a1:1424
#004321:1424
#0093a1:14
#009391:00340000
#009381:00003434
#010381:24
#013321:14
#013331:00340000
#013341:00003434
#014341:24
#021381:1424
#022321:14
#022341:0024
#0233a1:14
#023381:0024
#025321:1434343424000000
#0333a1:1434343434002400
#034321:14
#034331:00340034
#034341:0034
#035321:24
#0383a1:14
#038391:00340034
#038381:0034
#0393a1:24
#0413a1:14
#041381:00003434
#042381:24
#0423a1:00001424
#043321:00001424
#0443a1:00001424
#0473a1:00001434
#0483a1:24
#049381:00001424
#050341:00001424
#0513a1:14340034
#0523a1:00340000
#052381:00000024
#053321:14340034
#054321:00340000
#054341:00000024
#055381:14343434
#0553a1:0000000000000054
#056381:34343424
#057341:14343434
#057321:0000000000000054
#058341:34343424
#0593a1:14240000
#066321:1434343434000000
#066341:00000034
#067341:24
#073321:14000024
#073341:0000005400000000
#0743a1:14000024
#074381:0000005400000000
#075341:14
#078321:24
