This file was generated by Ched 2.7.0.0.
#TITLE ""
#ARTIST ""
#DESIGNER ""
#DIFFICULTY 0
#PLAYLEVEL
#SONGID ""
#WAVE ""
#WAVEOFFSET 0
#JACKET ""
#REQUEST "ticks_per_beat 480"
#00002: 4
#BPM01: 154
#00008: 01
#TIL00: ""
#VOLUME: ""
#HISPEED 00
#MEASUREHS 00
#0081a:14
#02312:0016
#02318:26
#0071a:14
#00710:41
#01012:14
#00912:14
#02512:1616
#02618:1616
#02912:16
#02918:0016
#03112:2616
#03218:1616
#03012:16
#03018:0016
#03318:0016
#03312:26
#03518:0016
#03512:16
#03418:0016
#03412:26
#03918:16
#03910:41
#0461a:14
#04712:14
#05018:0016
#05012:26
#0501f:21
#05218:1616
#05312:1616
#05618:16
#05612:0016
#05818:2616
#05912:1616
#05718:16
#05712:0016
#06012:0016
#06018:26
#06010:41
#06212:0016
#06218:16
#06112:0016
#06118:26
#06612:16
#0741a:00000000000000000000000000000000000000000000000000140000000000000000000000000000000000000000000000000000000000000000000000000000
#06818:00160000
#01218:14
#01118:14
#01414:14
#01314:14
#0421f:11
#05110:41
#02710:41
#01710:41
#0745a:00000000000000000000000000000000000000000000000000640000000000000000000000000000000000000000000000000000000000000000000000000000
#06858:00560000
#0033a0:14
#0043a0:0024
#005320:14
#006320:0024
#0153a0:14
#0163a0:24
#017320:14
#018320:24
#019380:14
#020380:24
#021340:14
#022340:24
#024380:1626
#027320:1626
#028380:1626
#036320:1626
#037380:1626
#038320:1626
#039320:0016
#040320:00363636
#041320:26
#042380:14
#043380:24
#044340:14
#045340:24
#048380:14
#049380:24
#051320:1626
#054380:1626
#055320:1626
#063380:1626
#064320:1626
#065380:1626
#066380:0016
#067380:00363636
#068380:00360000
#0743a0:00000000000000000000000000000000000000000000000000340000000000000000000000000000000000000000000000000000000000000000000000000000
#075380:00000024
