This file was generated by Ched 2.7.0.0.
#TITLE ""
#ARTIST ""
#DESIGNER ""
#DIFFICULTY 0
#PLAYLEVEL
#SONGID ""
#WAVE ""
#WAVEOFFSET 0
#JACKET ""
#REQUEST "ticks_per_beat 480"
#00002: 4
#BPM01: 154
#00008: 01
#TIL00: ""
#VOLUME: ""
#HISPEED 00
#MEASUREHS 00
#0421f:11
#04212:24141414
#0501a:0054001400541400
#0501a:00000014
#05016:14545400
#05012:2400000000000014
#05018:00540054000000540054000000000014
#0501f:21
#06212:0054001400541400
#06212:00000014
#0621a:14
#0621a:14
#06216:14545400
#06218:0000000000000012
#06214:00540054000000540054000000000000
#02316:0000541400000000
#02312:1400000000541400
#02312:00000014
#02314:00005400000000005400000000000014
#0231a:2400000000000014
#02313:00540000000000000054000000000000
#02315:00000054000000540000000000000000
#03516:0000541400000000
#03512:1400000000000012
#03512:14
#0351a:1400000000541400
#0351a:00000014
#03519:00540000000000000054000000000000
#03518:0054000054000000
#03517:00000054000000540000000000000000
#0571c:00000012
#05712:00120023
#05719:1212
#05715:1212
#0571b:00230000
#03016:00000012
#03018:00120023
#0301c:1212
#03012:1212
#03015:00230000
#0221a:14000014000000000000000000000000
#02212:14000014000000000000000000000000
#06812:00000000130000000000000000530000
#0681b:0000130000530000
#06814:0000000000000053
#06819:00000000000000000000005300000000
#00612:0023000013000000
#0061b:0000001300002300
#00618:0013000023000000
#00615:0000002300000000
#0051b:2300000023000013
#00518:0000230000130000
#00515:0000000013000023
#00512:0000130000230000
#00415:0013
#00418:0013001300000000
#0041b:00002323
#00412:0023002300000000
#00318:0000000000130013
#00315:13131300
#00312:0000000000230023
#0031b:23232300
#0071c:1212000000000000
#00716:00120012000000001200000000000000
#0071a:00120000
#00718:00000000000012000000000000120012
#00712:0000000000001212
#00710:41
#0081a:00120012000000001200000000000000
#00816:00120012
#00818:0000001200000000
#00814:1212000000000000
#01512:00000000000000000000001400000000
#0151a:00000014000014000000000000000000
#01412:0000000000000014
#01416:00000000001200000000000000000000
#0141a:00120000
#01414:00120000000000000000000000000000
#01418:12
#01614:14
#01618:00000000001400000000001400000000
#01612:0000140000140000
#01619:00000014000000000000000000000000
#01613:0014000000000000
#0161a:00140000000000000000000000000014
#01616:00000000000000000000000000000014
#04714:14000014
#04712:00140000
#04719:00000014000000000000000000000000
#04713:0014000000000000
#04718:00140000000000000000000000000000
#05516:00000000000000140000000000000000
#05518:0000000000000012
#05512:14000014
#0551a:00140014000014000000000000000000
#05514:0014000000000000
#05416:00000000140000140000000000000000
#0541a:14000014
#05412:00140014000000000000000000000000
#05418:0014000000000000
#05616:00000000000000000000001200000000
#0561c:0012
#05617:0000001200000012
#05618:00000012000000000000000000000000
#05612:12
#05116:0014240024140000
#0511a:00140000140000000000140000000000
#05112:0014
#05118:0000001400000012
#05114:1400002400000000
#05110:41
#04618:14000014
#0461a:00140000
#04613:00000014000000000000000000000000
#04619:0014000000000000
#04614:00140000000000000000000000000000
#02716:00000014
#02712:14001400140000140000000000000000
#02718:00000014000000000000000000000000
#0271a:00140000000000000000000000000000
#02710:41
#02816:0000001400001400
#0281a:14001400000000140000000000000000
#02814:00000014000000000000000000000000
#02812:00140000000000000000000000001200
#03712:00001414
#0371a:14140000
#03719:0000000000000014
#03713:0000001400000000
#0361c:00000000000012000000001200000000
#03616:0012
#03612:00000012000000000000000000001200
#03618:12
#03912:1200121200000012
#03914:0012
#03918:0000121200000012
#0391c:0000000000120000
#03916:0000000000120000
#0391a:00000012
#03910:41
#03415:0000000000000012
#03417:00000012
#03419:0000000000120000
#03416:00000000000000120000000000000000
#03418:0000001200000000
#0341b:23
#03412:23
#03319:0000000000000012
#03317:00000012
#03315:0000000000120000
#03318:00000000000000120000000000000000
#03316:0000001200000000
#03312:23
#0331b:23
#0241a:1414000024000000
#02414:00140000000024000000000000000000
#02416:0000240014140000
#02412:0000140000140000
#02418:0000001400000000
#0241c:0000000000000012
#01714:0014000000000000
#01718:00000014000000140000000000000000
#01712:0000000000140000
#01716:00000000000000000000001400000000
#01710:41
#01818:14
#01814:00000000001400000000001400000000
#0181a:0000140000140000
#01813:00000014000000000000000000000000
#01819:0014000000000000
#01812:00140000000000000000000000000000
#02112:00000000141200000000000014120000
#02118:00000000001200000000000000120000
#02116:14120000140000001412000014000000
#0211c:00120000000000000012000000000000
#0211a:1414
#06118:2300001200000012
#06115:23
#04514:12
#04516:0012
#0451c:22121212
#05816:00000000000000000000001400000000
#05812:0014
#05818:23
#05815:23
#04316:14
#04312:24141414
#03112:23000000000000000000001400000000
#03116:0014
#0311b:23
#0491c:0012
#04916:0012
#04912:12
#04918:12
#05912:14000013
#0591b:0000000000130000
#05916:0014
#05914:00140000
#04016:00120012
#04018:0012
#0401c:00120012
#04012:0012
#06619:0000121200000012
#06613:0000121200000012
#06617:00001212
#0661c:12
#06615:0000000000120000
#0661b:0000000000120000
#06616:12
#06713:00120012
#0671b:0012
#06717:00121212
#0651a:00002414
#06512:00002414
#06513:00240000
#06519:00240000
#06514:24
#06518:24
#0641a:14140014
#06412:0014
#06416:0000001400140014
#06016:0000001200000012
#06018:23
#06015:23
#06010:41
#06316:00000000000000000000001200000000
#0631c:0012
#06317:0000001200000012
#06318:00000012000000000000000000000000
#06312:12
#05216:00000000000000000000001200000000
#0521c:0012
#05217:0000001200000012
#05218:00000012000000000000000000000000
#05212:12
#05318:00000013
#0531b:0000000000130000
#05317:0012000000000000
#04814:0000001200000012
#04816:00000012000000000000000012000000
#04818:0012000000120000
#0481a:0012
#0441c:22121212
#0411b:1353
#04117:00530063
#04118:00000053005300000000005300000000
#0411a:00530000000000530053000000000000
#04119:0053005300530000
#0291c:00000000000012000000001200000000
#02916:0012
#02912:00000012000000000000000000001200
#02918:12
#02512:00000000000012000000001200000000
#02518:0012
#0251c:00000012000000000000000000001200
#02516:12
#0261b:00000013
#02618:0012000000130000
#03212:0014
#03214:00140000
#03216:14
#02012:00000000000000000000001400000000
#02018:0000000000140000
#0201a:00000000001400140000000000000000
#02014:0000141400000000
#0191a:00000000000000000000001400000000
#01914:0000000000140000
#01912:00000000001400140000000000000000
#01918:0000141400000000
#01318:00120000
#01316:1212
#01218:00120012
#01214:00120012000000001200000000000000
#01216:0000001200000000
#0121a:1212000000000000
#00916:00120000
#00918:1212
#01116:00000000000012000000000000120012
#0111c:0000000000001212
#01118:00120012000000001200000000000000
#01114:00120000
#01112:1212000000000000
#0101c:0012
#01012:0012
#01018:00000000001200000000000000000000
#01014:00120000
#0101a:00120000000000000000000000000000
#01016:12
#03816:24242400
#0381a:24
#0381a:24
#03817:00000022
#07513:0000005300000000
#07514:00000000000000000000000000000000000000000053000000000000000000000000000000000000000000000000000000000000000000000000000000000000
#07515:0000000000000000005300000000000000000000000000000000000000000000
#07516:00000000000000000000000000000053000000000000000000000000000000000000000000000000000000000000000000000000000000000000000000000000
#07417:00000000000000000000000000000000000000000000000000530000000000000000000000000000000000000000000000000000000000000000000000000000
#07412:00000000000000000000000000000000000000000000000000630000000000000000000000000000000000000000000000000000000000000000000000000000
#07312:00000000000000000000000000000000000000000000000000000000000000005300000000000000000000000000005300000000000000000000000000000000
#0731a:00000000000000000000000000000000000000000000000000000000000000000000000000000000005300000000000000000000000000000000000000000000
#07314:00000000000000000000000000000000000000000000000000000000000000000000000000000053000000000000000000000000000000000000000000000000
#07318:00000000000000000000000000000000000000000000000000000000000000000000005300000000000000000000000000000000000000000000000000000000
#07213:0053000000000000
#0721a:53
#07218:00000000000000000000000000000000000000530000000000000000000000000000000000000000000000000000000000000000000000000000000000000000
#07215:0000000000000000000000000000000000000053000000000000000000000000
#0721b:00000000000000000000000000000053
#07115:00000000000000000000000000000000000000000000530000000000000000000000000000530000000000000000000000000000000000000053000000000000
#07119:0000000000000000000000000000000000000000000000000053000000000000
#07114:00000000000000000000000000000053000000000000000000000000005300000000000000000000000000000053000000000000000000000000000000000000
#0711b:00000000000000000000530000000000000000000000000000530000000000000000000000000000005300000000000000000000000000000000000000000000
#0711a:00000000000000000000000000000000000000530000000000000000000000000053000000000000000000000000000000000000000000000000000000000000
#06912:0000000000000000005300000000000000000000000053000000000000000000
#06914:0000000000000053000000000000000000000000000000005300000000000053
#06919:00005300000000000000000000000000000000000000000000000000000000000000000000530000000000000000000000000000530000000000000000000000
#0691b:0000005300000000000000000000005300000000000000000000000000000000
#07015:0000000000000053
#07018:00000000000000000053000000000000
#07012:0000000000000000000000530000000000000000000000000000000000000000
#0701b:0053000000000000
#02254:00000034
#02258:00000044
#0385a:1414
#03852:00140000
#01452:00000032
#0145c:00000042
#05356:00000012
#04952:52000012
#04958:52000012
#0495c:00126200
#04956:00126200
#02652:00000012
#0135c:1212
#01356:1212
#00952:1212
#00958:1212
#01056:00000012
#01058:00000012
#0105c:0062
#01052:0052
#04157:00000013
#07452:00000000000000000000000000000000000000000000000000130000000000000000000000000000000000000000000000000000000000000000000000000000
#05052:14
#0505a:00000014
#0235a:14
#02352:00000014
#03058:00000013
#03055:00130000
#05156:0000000054240000
#0515a:0000000000240000
#05152:0054
#06552:0014
#0655a:0014
#06553:00140000
#06559:00140000
#06554:14
#06558:14
#06158:43
#06155:33
#05858:43
#05855:33
#05856:00000000000000000000002400000000
#05852:0054
#06058:43
#06055:33
#05752:00000013
#0575b:00130000
#03352:13
#0335b:13
#0245a:0064
#02456:0000000064240000
#02452:0000000000240000
#0345b:13
#03452:13
#0315b:13
#03152:13000000000000000000002400000000
#03156:0064
#0625a:14
#06252:00000014
#03552:14
#0355a:00000014
#04754:00000014
#05556:00000000000000640000000000000000
#05552:00000014
#05456:00000000000000540000000000000000
#0545a:00000014
#05656:00000000000000000000006200000000
#0565c:0062
#05657:0000001200000012
#05658:00000052000000000000000000000000
#05652:52
#04658:00000014
#02756:00000014
#02752:00000000000000540000000000000000
#02856:00000014
#0285a:00000000000000640000000000000000
#0365c:00000000000012000000006200000000
#03656:0062
#03652:00000052000000000000000000001200
#03658:52
#01758:00000000000000640000000000000000
#0165a:00000000000000000000000000000064
#02152:00000000642200000000000064220000
#02158:00000000002200000000000000220000
#02156:64220000540000006422000054000000
#0215c:00220000000000000022000000000000
#0215a:5454
#04554:52
#04556:0062
#04356:54
#05952:14000053
#0595b:0000000000630000
#05956:0014
#05954:00140000
#04056:00120012
#04058:0012
#06757:00121212
#06356:00000000000000000000006200000000
#0635c:0062
#06357:0000001200000012
#06358:00000052000000000000000000000000
#06352:52
#05256:00000000000000000000006200000000
#0525c:0062
#05257:0000001200000012
#05258:00000052000000000000000000000000
#05252:52
#0295c:00000000000012000000006200000000
#02956:0062
#02952:00000052000000000000000000001200
#02958:52
#02552:00000000000012000000005200000000
#02558:0052
#0255c:00000062000000000000000000001200
#02556:62
#03252:0014
#03254:00140000
#03256:14
#001380:0000000000000012
#002380:22
#001331:0000000000000012
#002331:22
#002351:00000000000000140000240000000000
#0023a0:00000000000000140000240000000000
#004350:00000013
#005350:23
#006350:00000013
#007350:23
#0083c0:00000012
#008380:0000000000000022
#008361:0000000000000012
#009321:22
#0093c1:00120000
#009381:0000002200000000
#009360:0000001200000000
#009320:0022
#0093a0:00000012
#0103a0:22
#010320:0012
#010360:00000000000000000000005222000000
#0103c1:0012
#010381:00000000000000000000005222000000
#012321:00000012
#012361:0000000000000022
#012380:0000000000000012
#0133c0:22
#013320:00120000
#013360:0000002200000000
#013381:0000001200000000
#0133c1:0022
#013341:00000012
#014341:22
#014321:00001222
#014361:0000000000520000
#0143c0:00001222
#014380:0000000000520000
#014380:00000000000000000000000000000014
#015380:00240000000000000000000000000000
#015341:00140024000000000000000000000000
#015321:0000142400000000
#015341:00000000000000140024000000000000
#015380:00000000000000000014002400000000
#0153a0:00000014
#0163a0:24
#016320:0000001424000000
#016381:0000000014240000
#0163a1:00000000000000000000000000000014
#017381:0024000000000000
#017341:00000000140000240000000000000000
#017380:00000000000000140000000000000000
#017360:0000000000240000
#017320:00000014
#018320:24
#0183a0:0000001424000000
#018341:0000000014240000
#0193a1:14
#019381:0024000000000000
#019340:0014000000000000
#019320:00240000
#019380:0014
#0193a0:0000000000240000
#020320:14
#020340:0024000000000000
#020381:0014000000000000
#0203a1:00240000
#020341:0014
#020321:0000000000240000
#021361:14522400000000000000000000000000
#0213a0:1424000000000000
#0213c0:00520000000000000000000000000000
#021360:0000142400000000
#021380:00000000005200000000000000000000
#021321:00000000145224000000000000000000
#021361:00000000000000001452240000000000
#0213a0:0000000014240000
#0213c0:00000000000000000052000000000000
#021360:0000000000001424
#021380:00000000000000000000000000520000
#021321:00000000000000000000000014522400
#022321:0000001400000000
#022331:00000000000000340000000000000000
#022341:00003424
#0223a0:0000001400000000
#022390:00000000000000340000000000000000
#022380:00003424
#0233a0:0000142400000000
#023360:0000000000142400
#0243a0:00001424
#024360:0000000000540000
#024361:00001424
#024321:0000000000540000
#025361:12
#025321:00000022000000000000000000000000
#0253c0:00000012000000000000000000000000
#025380:0000002200000000
#025380:0012
#0253c0:00000000000000000000002200000000
#025321:00000000000000000000001200000000
#025361:0000000000000022
#026361:1222000000000000
#026341:00000012000022000000000000000000
#0263c0:0000001222000000
#026321:00001222
#027361:00000000001400240000000000000000
#027320:00000000000000140000000000000000
#027360:0000000000240000
#0273a1:0000000000142400
#0283a1:0000142400000000
#0283a1:00000000000000140000000000000000
#028361:0000000000240000
#028320:0000000000142400
#029380:12
#0293c0:00000022000000000000000000000000
#029321:00000012000000000000000000000000
#029361:0000002200000000
#029361:0012
#029321:00000000000000000000002200000000
#0293c0:00000000000000000000001200000000
#029380:0000000000000022
#0313a0:0000001424000000
#031361:0000000014000024
#031321:00000000000000000000005400000000
#0313a0:0000000000000014
#0323a0:24
#032380:0014240000000000
#032360:0000001424000000
#0323b0:0000000000130000
#0333b0:23
#032321:00000013
#033321:23
#035321:0000142400000000
#035361:0000000000142400
#036381:12
#0363c1:00000022000000000000000000000000
#036320:00000012000000000000000000000000
#036360:0000002200000000
#036360:0012
#036320:00000000000000000000002200000000
#0363c1:00000000000000000000001200000000
#036381:0000000000000022
#037341:14240000
#037381:00001424
#038361:14
#038321:0054240000000000
#038360:00140000
#0383a0:0000005424000000
#038361:0014
#038321:0000000000542400
#038370:000000000000000000000000000000000000000000000000000000000000000000000000000000000000000000000000000000000000000000000000000000000000000000000000000000000000000000000000000000000000000000000000000000000000000000000000000000000000000000000000000000000000000000000000000000000000000000000000000000000000000000000000000000000000000000000000000000000000000000000000000000000000000000000000000000000000000000000000000000000000000000000000000000000000000000000000000000000000000000000000000000000000000000000000000000000000000000000000000000000000000000000000000000000000000000000000000000000000000000000000000000000000000000000000000000000000000000000000000000000000000000000000000000000000000000000000000000000000000000000000000000000000000000000000000000000000000000000000000000000000000000000000000000000000000000000000000000000000000000000000000000000000000000000000000000000000000000000000000000000000000000000000000000000000000000000000000000000000000000000000000000000000000000000000000000000000000000000000000000000000000000000000000000000000000000000000000000000000000000000000000000000000000000000000000000000000000000000000000000000000000000000000000000000000000000000000000000000000000000000000000000000000000000000000000000000000000000000000000000000000000000000000000000000000000000000000000000000000000000000000000000000000000000000000000000000000000000000000000000000000000000000000000000000000000000000000000000000000000000000000000000000000000000000000000000000000000000000000000000000000000000000000000000000000000000000000000000000000000000000000000000000000000000000000000000000000000000000000000000000000000000000000000000000000000000000000000000000000000000000000000000000000000000000000000000000000000000000000000000000000000000000000000000000000000000000000000000000000000000000000000000000000000000000000000000000000000000000000000000000000000000000000000000000000000000000000000000000000000000000000000000000000000000000000000000000000000000000000000000000000000000000000000000000000000000000000000000000000000000000000000000000000000000000000000000000000000000000000000000000000000000000000000000000000000000000000000000000000000000000000000000000000000000000000000000000000000000000000000000000000000000000000000000000000000000000000000000000000000000000000000000000000000000000000000000000000000000000000000000000000000000000000000000000000000000000000000000000000000000000000000000000000000000000000000000000000000000000000000000000000000000000000000000000000000000000000000000000000000000000000000000000000000000000000000000000000000000000000000000000000000000000000000000000000000000000000000000000000000000000000000000000000000000000000000000000000000000000000000000000000000000000000000000000000000000000000000000000000000000000000000000000000000000000000000000000000000000000000000000000000000000000000000000000000000000000000000000000000000000000000120000000000000000000000000000000000000000000000000000000000000000000000000000000000000000000000000000000000000000000000000000000000000000000000000000000000000000000000000000000000000000000000000000000000000000000000000000000000000000000000000000000000000000000000000000000000000000000000000000000000000000000000000000000000000000000000000000000000000000000000000000000000000000000000000000000000000000000000000000000000000000000000000000000000000000000000000000000000000000000000000000000000000000000000000000000000000000000000000000000052000000000000000000000000000000000000000000000000000000000000000000000000000000000000000000000000000000000000000000000000005200000000000000000000000000000000000000000000000000000000000000000000000000000000000000000000000000000000000000000000000000000000000000000000000000000000000000000000000000000000000000000000000000000000000000000000000000000000000000000000000000000000000000000000000000000000000000000000000000000000
#038330:0000000000000000000000000000000000000000000000000000000000000000000000000000000000000000000000000000000000000000005a005a00000000
#039370:22
#0423a0:140000000000000000000000000000000000000000000000000000000000000000000000000000000000000000000000000000000000000000000000000000000000000000000000000000000000000000000000000000000000000000000000000000000000000000000000000000000000000000000000000000000000000000000000000000000000000000000000000000000000000000000000000000000000000000000000000000000000000000000000000000000000000000000000000000000000000000000000000000000000000000000000000000000000000000000000000000000000000000000000000000000000000000000000000000000000000000000000000000000000000000000000000000000000000000000000000000000000000000000000000000000000000000000000000000000000000000000000000000000000000000000000000000000000000000000000000000000000000000000000000000000000000000000000000000000000000000000000000000000000000000000000000000000000000000000000000000000000000000000000000000000000000000000000000000000000000000000000000000000000000000000000000000000000000000000000000000000000000000000000000000000000000000000000000000000000000000000000000000000000000000000000000000000000000000000000000000000000000000000000000000000000000000000000000000000000000000000000000000000000000000000000000000000000000000000000000000000000000000000000000000000000000000000000000000000000000000000000000000000000000000000000000000000000000000000000000000000000000000000000000000000000000000000000000000000000000000000000000000000000000000000000000000000000000000000000000000000000000000000054000000000000000000000000000000000000000000000000000000000000000000000000000000000000000000000000000000000000000000000000000000000000000000000000000000000000000000000000000000000000000000000000000000000000000000000000000000000000000000000000000000000000000000000000000000000000000000000000000000000000000000000000000000000000000000000000000000000000000000000000000000000000000000000000000000000000000000000000000000000000000000000000000000000000000000000000000000000000000000000000000000000000000000000000000000000000000000000000000000000000000000000000000000000000000000000000000000000000000000000000000000000000000000000000000000000000000000000000000000000000000000000000000000000000000000000000000000000000000000000000000000000000000000000000000000000000000000000000000000000000000000000000000000000000000000000000000000000000000000000000000000000000000000000000000000000000000000000000000000000000000000000000000000000000000000000000000000000000000000000000000000000000000000000000000000000000000000000000000000000000000000000000000000000000000000000000000000000000000000000000000000000000000000000000000000000000000000000000000000000000000000000000000000000000000000000000000000000000000000000000000000000000000000000000000000000000000000000000000000000000000000000000000000000000000000000000000000000000000000000000000000000000000000000000000000000000000000000000000000000000000000000000000000000000000000000000000000000000000000000000000000000000000000000000000000000000000000000000000000000000000000000000000000000000000000000000000000000000000000000000000000000000000000000000000000000000000000000000000000000000000000000000000000000000000000000000000000000000000000000000000000000000000000000000000000000000000000000000000000000000000000000000000000000000000000000000000000000000000000000000000000000000000000000000000000000000000000000000000000000000000000000000000000000000000000000000000000000000000000000000000000000000000000000000000000000000000000000000000000000000000000000000000000000000000000000000000000000000000000000000000000000000000000000000000000000000000000000000000000000000000000000000000000000000000000000000000000000000000000000000000000000000000000000000000000000000000000000000000000000000000000000000000000000000000000000000000000000000000000000000000000000000000000000000000000000000000000000000000000000000000000000000000000000000000000000000000000000000000000000000
#042380:000000000000000000000000000000000000000000000000000000000000000000000000000000000000000000000000000000000000000000000000000000000000000000000000000000000000000000000000000000000000000000000000000000000000000000000000000000000000000000000000000000000000000000000000000000000000000000000000000000000000000000000000000000000000000000000000000000000000000000000000000000000000000000000000000000000000000000000000000000000000000000000000000000000000000000000000000000000000000000000000000000000000000000000000000000000000000000000000000000000000000000000000000000000000000000000000000000000000000000000000000000000000000000000000000000000000000000000000000000000000000000000000000000000000000000000000000000000000000000000000000000000000000000000000000000000000000000000000000000000000000000000000000000000000000000000000000000000000000000000000000000000000000000000000000000000000000000000000000000000000000000000000000000000000000000000000000000000000000000000000000000000000000000000000000000000000000000000000000000000000000000000000000000000000000000000000000000000000000000000000000000000000000000000000000000000000000000000000000000000000000000000000000000000000000000000000000000000000000000000000000000000000000000000000000000000000000000000000000000000000000000000000000000000000000000000000000000000000000000000000000000000000000000000000000000000000000000000000000000000000000000000000000000000000000000000000000000000000000000000000540000000000000000000000000000000000000000000000000000000000000000000000000000000000000000000000000000000000000000000000000000000000000000000000000000000000000000000000000000000000000000000000000000000000000000000000000000000000000000000000000000000000000000000000000000000000000000000000000000000000000000000000000000000000000000000000000000000000000000000000000000000000000000000000000000000000000000000000000000000000000000000000000000000000000000000000000000000000000000000000000000000000000000000000000000000000000000000000000000000000000000000000000000000000000000000000000000000000000000000000000000000000000000000000000000000000000000000000000000000000000000000000000000000000000000000000000000000000000000000000000000000000000000000000000000000000000000000000000000000000000000000000000000000000000000000000000000000000000000000000000000000000000000000000000000000000000000000000000000000000000000000000000000000000000000000000000000000000000000000000000000000000000000000000000000000000000000000000000000000000000000000000000000000000000000000000000000000000000000000000000000000000000000000000000000000000000000000000000000000000000000000000000000000000000000000000000000000000000000000000000000000000000000000000000000000000000000000000000000000000000000000000000000000000000000000000000000000000000000000000000000000000000000000000000000000000000000000000000000000000000000000000000000000000000000000000000000000000000000000054000000000000000000000000000000000000000000000000000000000000000000000000000000000000000000000000000000000000000000000000000000000000000000000000000000000000000000000000000000000000000000000000000000000000000000000000000000000000000000000000000000000000000000000000000000000000000000000000000000000000000000000000000000000000000000000000000000000000000000000000000000000000000000000000000000000000000000000000000000000000000000000000000000000000000000000000000000000000000000000000000000000000000000000000000000000000000000000000000000000000000000000000000000000000000000000000000000000000000000000000000000000000000000000000000000000000000000000000000000000000000000000000000000000000000000000000000000000000000000000000000000000000000000000000000000000000000000000000000000000000000000000000000000000000000000000000000000000000000000000000000000000000000000000000000000000000000000000000000000000000000000000000000000000000000000000000000000000000000000000000
#042360:00000054
#043360:54
#0433a0:00000024
#043360:000000000000000000000000000000000000000000000000000000000000000000000000000000000000000000000000000000000000000000000000000000000000000000000000000000000000000000000000000000000000000000000000000000000000000000000000000000000000000000000000000000000000000000000000000000000000000000000000000000000000000000000000000000000000000000000000000000000000000000000000000000000000000000000000000000000000000000000000000000000000000000000000000000000000000000000000000000000000000000000000000000000000000000000000000000000000000000000000000000000000000000000000000000000000000000000000000000000000000000000000000000000000000000000000000000000000000000000000000000000000000000000000000000000000000000000000000000000000000000000000000000000000000000000000000000000000000000000000000000000000000000000000000000000000000000000000000000000000000000000000000000000000000000000000000000000000000000000000000000000000000000000000000000000000000000000000000000000000000000000000000000000000000000000000000000000000000000000000000000000000000000000000000000000000000000000000000000000000000000000000000000000000000000000000000000000000000000000000000000000000000000000000000000000000000000000000000000000000000000000000000000000000000000000000000000000000000000000000000000000000000000000000000000000000000000000000000000000000000000000000000000000000000000000000000000000000000000000000000000000000000000000000000000000000000000000000000000000000000000000000000000000000000000000000000000000000000000000000000000000000000000000000000000000000000000000000000000000000000000000000000000000000000000000000000000000000000000000000000000000000000000000000000000000000000000000000000000000000000000000000000000000000000000000000000000000000000000000000000000000000000000000000000000000000000000000000000000000000000000000000000000000000000000000000000000000000000000000000000000000000000000000000000000000000000000000000000000000000000000000000000000000000000000000000000000000000000000000000000000000000000000000000000000000000000000000000000000000000000000000000000000000000000000000000000000000000000000000000000000000000000000000000000000000000000000000000000000000000000000000000000000000000000000000000000000000000000000000000000000000000000000000000000000000000000000000000000000000000000000000000000000000000000000000000000000000000000000000000000000000000000000000000000000000000000000000000000000000000000000000000000000000000000000000000000000000000000000000000000000000000000000000000000000000000000000000000000000000000000000000000000000000000000000000000000000000000000000000000000000000000000000000000000000000000000000000000000000000000000000000000000000000000000000000000000000000000000000000000000000000000000000000000000000000000000000000000000000000000000000000000000000000000000000000000000000000000000000000000000000000000000000000000000000000000000000000000000000000000000000000000000000000000000000000000000000000000000000000000000000000000000000000000000000000000000000000000000000000000000000000000000000000000000000000000000000000000000000000000000000000000000000000000000000000000000000000000000000000000000000000000000000000000000000000000000000000000000000000000000000000000000000000000000000000000000000000000000000000000000000000000000000000000000000000000000000000000000000000000000000000000000000000000000000000000000000000000000000000000000000000000120000000000000000000000000000000000000000000000000000000000000000000000000000000000000000000000000000000000000000000000000000000000000000000000000000000000000000000000000000000000000000000000000000000000000000000000000000000000000000000000000000000000000000000000000000000000000000000000000000000000000000000000000000000000000000000000000000000000000000000000000000000000000000000000000000000000000000000000000000000000000000000000000000000000000000000000000000000000000000000052
#044350:520000000000000000000000000000000000000000000000000000000000000000000000000000000000000000000000000000000000000000000000000000000000000000000000000000000000000000000000000000000000000000000000000000000000000000000000000000000000000000000000000000000000000000000000000000000000000000000000000000000000000000000000000000000000000000000000000000000000000000000000000000000000000000000000000000000000000000000000000000000000000000000000000000000000000000000000000000000000000000000000000000000000000000000000000000000000000000000000000000000000000000000000000000000000000000000000000000000000000000000000000000000000000000000000000000000000000000000000000000000000000000000000000000000000000000000000000000000000000000000000000000000000000000000000000000000000000000000000000000000000000000000000000000000000000000000000000000000000000000000000000000000000000000000000000000000000000000000000000000000000000000000000000000000000000000000000000000000000000000000000000000000000000000000000000000000000000000000000000000000000000000000000000000000000000000000000000000000000000000000000000000000000000000000000000000000000000000000000000000000000000000000000000000000000000000000000000000000000000000000000000000000000000000000000000000000000000000000000000000000000000000000000000000000000000000000000000000000000000000000000000000000000000000000000000000000000000000000000000000000000000000000000000000000000000000000000000000000000000000000000000000000000000000000000000000000000000000000000000000000000000000000000000000000000000000000000000000000000000000000000000000000000000000000000000000000000000000000000000000000000000000000000000000000000000000000000000000000000000000000000000000000000000000000000000000000000000000000000000000000000000000000000000000000000000000000000000000000000000000000000000000000000000000000000000000000000000000000000000000000000000000000000000000000000000000000000000000000000000000000052000000000000000000000000000000000000000000000000000000000000000000000000000000000000000000000000000000000000000000000000000000000000000000000000000000000000000000000000000000000000000000000000000000000000000000000000000000000000000000000000000000000000000000000000000000000000000000000000000000000000000000000000000000000000000000000000000000000000000000000000000000000000000000000000000000000000000000000000000000000000000000000000000000000000000000000000000000000000000000000000000000000000000000000000000000000000000000000000000000000000000000000000000000000000000000000000000000000000000000000000000000000000000000000000000000000000000000000000000000000000000000000000000000000000000000000000000000000000000000000000000000000000000000000000000000000000000000000000000000000000000000000000000000000000000000000000000000000000000000000000000000000000000000000000000000000000000000000000000000000000000000000000000000000000000000000000000000000000000000000000000000000000000000000000000000000000000000000000000000000000000000000000000000000000000000000000000000000000000000000000000000000000000000000000000000000000000000000000000000000000000000000000000000000000000000000000000000000000000000000000000000000000000000000000000000000000000000000000000000000000000000000000000000000000000000000000000000000000000000000000000000000000000000000000000000000000000000000000000000000000000000000000000000000000000000000000000000000000000000000000000000000000000000000000000000000000000000000000000000000000000000000000000000000000000000000000000000000000000000000000000000000000000000000000000000000000000000000000000000000000000000000000000000000000000000000000000000000000000000000000000000000000000000000000000000000000000000000000000000000000000000000000000000000000000000000000000000000000000000000000000000000000000000000000000000000000000000000000000000000000000000000000000000000000000000000000000000000000000000000000
#044340:0052
#045340:52
#045360:0052
#046340:22
#046320:00000000001400240000000000000000
#0463a1:00000000000000140000240000000000
#046340:0000000000142400
#0473a0:00000000001400240000000000000000
#047321:00000000000000140000240000000000
#047380:0000000000142400
#0483a0:0000122200000000
#049380:12
#0493c0:00220000
#049321:12
#049361:00220000
#049361:0012
#049321:00000022
#0493c0:0012
#049380:00000022
#050320:0000142400000000
#050360:0000000000142400
#051320:00001424
#051360:0000000000540000
#051361:00001424
#0513a1:0000000000540000
#052321:12
#052361:00000022000000000000000000000000
#052380:00000012000000000000000000000000
#0523c0:0000002200000000
#0523c0:0012
#052380:00000000000000000000002200000000
#052361:00000000000000000000001200000000
#052321:0000000000000022
#053321:1222000000000000
#053341:00000012000022000000000000000000
#053380:0000001222000000
#053361:00001222
#054321:00000000001400240000000000000000
#054360:00000000000000140000000000000000
#0543a0:0000000000240000
#054361:0000000000142400
#055361:0000142400000000
#055361:00000000000000140000000000000000
#055321:0000000000240000
#055360:0000000000142400
#056320:12
#056360:00000022000000000000000000000000
#056381:00000012000000000000000000000000
#0563c1:0000002200000000
#0563c1:0012
#056381:00000000000000000000002200000000
#056360:00000000000000000000001200000000
#056320:0000000000000022
#0583a0:0000001424000000
#058321:0000000014000024
#058361:00000000000000000000005400000000
#058360:0000000000000014
#059360:24
#059380:0014240000000000
#0593a0:0000001424000000
#0593b0:0000000000130000
#060380:23
#059321:00000013
#060351:23
#060381:00000000000000120000220000000000
#060320:0000000000120000
#060360:00000022
#0603c1:00000012
#060381:0000000000000022
#061361:00000000000000120000220000000000
#0613c0:0000000000120000
#061380:00000022
#061321:00000012
#061361:0000000000000022
#0623a1:0000142400000000
#062361:0000000000142400
#063321:12
#063361:00000022000000000000000000000000
#063380:00000012000000000000000000000000
#0633c0:0000002200000000
#0633c0:0012
#063380:00000000000000000000002200000000
#063361:00000000000000000000001200000000
#063321:0000000000000022
#064321:14240000
#0643a1:0000000014240000
#064321:0000000000001424
#023920:14
#023930:00540000000000000000000000000000
#023940:0054000000000000
#023950:00000054000000000000000000000000
#023960:00240000
#023960:0000001400000000
#023950:00000000000000540000000000000000
#023940:0054
#023930:00000000000000000054000000000000
#023920:0000000000240000
#0359a0:14
#035990:00540000000000000000000000000000
#035980:0054000000000000
#035970:00000054000000000000000000000000
#035960:00240000
#035960:0000001400000000
#035970:00000000000000540000000000000000
#035980:0054
#035990:00000000000000000054000000000000
#0359a0:0000000000240000
#0419b0:1353
#041970:00530023
#050960:14240000
#050980:00540054000000000000000000000000
#0509a0:0054000000000000
#0509a0:0000001400240000
#050980:00000000000000540054000000000000
#050960:0054
#062960:14240000
#062940:00540054000000000000000000000000
#062920:0054000000000000
#062920:0000001400240000
#062940:00000000000000540054000000000000
#062960:0054
#068920:00000000000000000000000000000000130000000000000000000000000000000000000000000000000000000000000000000023000000000000000000000000
#0689b1:00000000000000000000000000000000130000000000000000000000000000000000000000000023000000000000000000000000000000000000000000000000
#0689b1:0000000000130000
#068991:00000000000000000000005300000000
#069991:00230000000000000000000000000000000000000000000000000000000000000000000000000000000000000000000000000000000000000000000000000000
#068920:00000000000000000000000000130000
#068940:0000000000000053
#069940:00000000000000000000000000230000000000000000000000000000000000000000000000000000000000000000000000000000000000000000000000000000
#069991:0013000000000000000000000000000000000000000000000000000000000000
#0699b1:00000000000053000000000000000000000000000000000000000000002300000000000000000000000000000000000000000000000000000000000000000000
#069940:0000000000000013000000000000000000000000000000000000000000000000
#069920:00000000000000000000000000000000000053000000000000000000000000000000000000000000000000230000000000000000000000000000000000000000
#0699b1:0000000000000000000000000000001300000000000000000000000000000000
#069991:00000000000000000000000000000000000000000000000000000000000000000000000000530000000000000000000000000023000000000000000000000000
#069920:00000000000000000000001300000000
#069940:00000000000000000000000000000000000000000000000000000000000000000000000000000000000000000000000053000000000000000000000000230000
#069991:00000000000000000000000000130000
#0709b1:00000000000000230000000000000000000000000000000000000000000000000000000000000000000000000000000000000000000000000000000000000000
#069940:0000000000000000000000000000000000000000000000000000000000000013
#070920:00000000000000000000000000000000000000000023000000000000000000000000000000000000000000000000000000000000000000000000000000000000
#0709b1:0013000000000000
#070981:00000000000000000000000000000000000000000000000000000000000000000000002300000000000000000000000000000000000000000000000000000000
#070920:0000000000000000000000130000000000000000000000000000000000000000
#070950:00000000000000000000000000000000000000000000000000000000000000000000000000000000000000000000000000000000000000230000000000000000
#070981:00000000000000000013000000000000
#0719b1:00000000000000000023000000000000000000000000000000000000000000000000000000000000000000000000000000000000000000000000000000000000
#070950:0000000000000013
#071940:0000000000000023000000000000000000000000000000000000000000000000
#0719b1:0000000000130000000000000000000000000000000000000000000000000000
#0719a1:0000000000000000002300000000000000000000000000000000000000000000
#071940:00000000000000000000000000000013000000000000000000000000000000000000000000000000000000000000000000000000000000000000000000000000
#071950:00000000000000000000000000000000000000000023000000000000000000000000000000000000000000000000000000000000000000000000000000000000
#0719a1:00000000000000000000000000000000000000130000000000000000000000000000000000000000000000000000000000000000000000000000000000000000
#0719b1:0000002300000000
#071950:0000000000000000000000130000000000000000000000000000000000000000
#071940:00000000000000230000000000000000
#0719b1:00000000000000000000000000000000000000000000000000130000000000000000000000000000000000000000000000000000000000000000000000000000
#0719a1:0023
#071940:00000000000000000000000000000000000000000000000000000000001300000000000000000000000000000000000000000000000000000000000000000000
#071950:00000000000000000023000000000000
#0719a1:00000000000000000000000000000000000000000000000000000000000000000013000000000000000000000000000000000000000000000000000000000000
#0719b1:0000000000230000
#071950:00000000000000000000000000000000000000000000000000000000000000000000000000130000000000000000000000000000000000000000000000000000
#071940:00000000000000000000002300000000
#0719b1:00000000000000000000000000000000000000000000000000000000000000000000000000000000001300000000000000000000000000000000000000000000
#071991:00000000000000000000000000000000000000000000000000000000000000000000000000000000000000000000000000230000000000000000000000000000
#071940:00000000000000000000000000000000000000000000000000000000000000000000000000000000000000000013000000000000000000000000000000000000
#071950:0000000000000023
#071991:0000000000000000000000000000000000000000000000000013000000000000
#0719a1:00000000000000000000000000000000000000000000000000000000000000000000000000000000000000000000000000000000000000000000000000000023
#071950:00000000000000000000000000000000000000000000000000000000000000000000000000000000000000000000000000000000000000000013000000000000
#072930:00000000000000230000000000000000000000000000000000000000000000000000000000000000000000000000000000000000000000000000000000000000
#0729a1:13
#072981:0000000000000000002300000000000000000000000000000000000000000000
#072930:0013000000000000
#072950:00000000000000000000000000000000000000000000000000000000000000000000000000230000000000000000000000000000000000000000000000000000
#072981:00000000000000000000000000000000000000130000000000000000000000000000000000000000000000000000000000000000000000000000000000000000
#0729b1:00000000000000000000000000000000000000000000000000000000000000000000000000000000000000000000000000000000000000000000002300000000
#072950:0000000000000000000000000000000000000013000000000000000000000000
#073920:00000000000000000000000000000000000000000000000000000000000000230000000000000000000000000000000000000000000000000000000000000000
#0729b1:00000000000000000000000000000013
#073981:0000000000000000000000000000000000230000000000000000000000000000
#073920:0013
#073940:0000000000000000000000000000000000000023000000000000000000000000
#073981:00000000000000000000000000000000000000000000000000000000000000000000001300000000000000000000000000000000000000000000000000000000
#0739a1:0000000000230000
#073940:00000000000000000000000000000000000000000000000000000000000000000000000000000013000000000000000000000000000000000000000000000000
#073920:0000000000000000000000000000000000000000000000230000000000000000
#0739a1:00000000000000000000000000000000000000000000000000000000000000000000000000000000001300000000000000000000000000000000000000000000
#074971:0000002300000000
#073920:00000000000000000000000000000000000000000000000000000000000000000000000000000000000000000000001300000000000000000000000000000000
#074920:0000002300000000
#074970:00000000000000000000000000000000000000000000000000130000000000000000000000000000000000000000000000000000000000000000000000000000
#0759b0:00000000000000000000000000000023000000000000000000000000000000000000000000000000000000000000000000000000000000000000000000000000
#075961:00000000000000000000000000000013000000000000000000000000000000000000000000000000000000000000000000000000000000000000000000000000
#075931:0000005300000000
#075921:00000022
