This file was generated by Ched 2.7.0.0.
#TITLE ""
#ARTIST ""
#DESIGNER ""
#DIFFICULTY 0
#PLAYLEVEL
#SONGID ""
#WAVE ""
#WAVEOFFSET 0
#JACKET ""
#REQUEST "ticks_per_beat 480"
#00002: 4
#BPM01: 154
#00008: 01
#TIL00: ""
#VOLUME: ""
#HISPEED 00
#MEASUREHS 00
#00912:13
#0091b:0013
#00918:00130000
#00915:0000001300000000
#0101b:0013
#01018:13
#01015:00130000
#01012:0013
#0221b:13000013000013000000000000000000
#02212:13000013000013000000000000000000
#04015:00000013
#04018:0013
#04012:00130000
#04912:13
#0491b:0013
#00315:1300130000230000
#00318:0000000023000013
#0031b:23230000
#00312:0000000000000023
#00418:0013000023000000
#00415:0000002300001300
#00412:0023000000000000
#0041b:00000023
#03315:0000001300001300
#03318:23000000000000130000000000001300
#03312:0000000000130000
#00518:1300130000230000
#00515:0000000023000013
#00512:23230000
#0051b:0000000000000023
#00615:0013000023000000
#00618:0000002300001300
#0061b:0023000000000000
#00612:00000023
#00712:00130000
#00715:0000001300001300
#00718:0013000013000013
#0071b:13
#00710:41
#0081b:13
#00812:00130000
#00815:0013001300001300
#00818:0000000013000013
#0131b:13
#01312:0013
#01315:00130000
#01318:0000001300000000
#01218:0013001300001300
#01215:0000000013000013
#01212:13
#0121b:00130000
#01415:13
#01418:00130000
#0151b:1313
#01512:1313
#01515:00000013
#01518:00130000
#03118:2600001300000013
#03115:0013
#03112:26
#03212:1313
#0321b:0013000000001300
#03215:00130000
#03218:0000001300000000
#05815:0000001300000013
#05818:2613
#05812:26
#0591b:1313
#05912:0013000000001300
#05918:00130000
#05915:0000001300000000
#03912:1313
#0391b:1300000000000013
#03918:00130013
#03915:0000001300130000
#03910:41
#04614:00340000340000000000000014000000
#0461a:0000000000140000
#04612:14
#04615:0000000034143400000000000000000000000000000000000000000000000000
#04718:00340000340000000000000014000000
#04712:0000000000140000
#0471a:14
#04717:0000000034143400000000000000000000000000000000000000000000000000
#03418:0000001300001300
#03415:23000000000000130000000000001300
#0341b:0000000000130000
#04812:0013
#04815:0013130000130000
#04818:00000013000000000000000013000000
#0481b:0000001300000013
#0211b:13
#02112:13
#02118:00130013
#02115:0013
#01912:13000000000000330000000000000000
#0191b:0013000000000000
#01918:0000000000130000
#01915:00000000000000000000001300000000
#01914:00000000003300000000000000000000
#01913:0000003300000000
#0201b:13000000000000330000000000000000
#02012:0013000000000000
#02015:0000000000130000
#02018:00000000000000000000001300000000
#02019:00000000003300000000000000000000
#0201a:0000003300000000
#06018:0000001300001300
#06015:23000000000000130000000000001300
#0601b:0000000000130000
#06010:41
#06115:0000001300001300
#06118:23000000000000130000000000001300
#06112:0000000000130000
#06718:00000013
#06715:0013
#0671b:00130000
#0661b:1313
#06612:1300000000000013
#06615:00130013
#06618:0000001300130000
#01712:1313
#0171b:1313
#01718:00000013
#01715:00130000
#01710:41
#0111b:00130000
#01118:0000001300001300
#01115:0013000013000013
#01112:13
#0751b:00000000000000000000000000000013000000000000000000000000000000000000000000000000000000000000000000000000000000000000000000000000
#07518:0000003300000000
#07519:00000000000000000000000000000000000000000033000000000000000000000000000000000000000000000000000000000000000000000000000000000000
#0751a:0000000000000000003300000000000000000000000000000000000000000000
#0161b:1313
#01615:0013000000130000
#01618:00000000130000000000001300000000
#01612:0000001300000000
#01812:1313
#01818:0013000000130000
#01815:00000000130000000000001300000000
#0181b:0000001300000000
#02412:0000240000000013
#02416:0000002400000000
#0241a:0024
#0261b:13
#02615:0013000000000000
#02618:00000013000000000000000000000000
#02612:0000001300000000
#02818:00000014
#02812:0000000000140000
#02815:0000000000000013
#02714:00000014
#0271a:0000000000140000
#02710:41
#03012:13000026
#0301b:0013
#03015:0013
#03018:13260000
#0371b:0000001300000000
#03718:0000000000000013
#0351b:0000000000000013
#03817:00000012
#03812:2424
#03812:2424
#0381a:00240000
#0381a:00240000
#0511b:0000000000000013
#0511a:00240000
#05116:0000002400000000
#05112:0024
#05110:41
#05312:13
#05318:0013000000000000
#05315:00000013000000000000000000000000
#0531b:0000001300000000
#05514:00000014
#0551a:0000000000140000
#05518:0000000000000013
#05418:00000014
#05412:0000000000140000
#0571b:13
#05712:00261300
#05718:00001326
#05715:13
#06212:0000000000000013
#06412:0000001300000000
#06415:0000000000000013
#06517:00000012
#0651a:2424
#0651a:2424
#06512:00240000
#06512:00240000
#0411a:14
#04119:00540000000000000000000000000000
#04118:0054000000000000
#04117:00000054000000000000000000000000
#04116:00540064
#04115:00000000005600000000005600000000
#04114:0000005800580000
#04113:000000000000005a005a000000000000
#04112:005c
#0421f:11
#04215:00000033
#04214:0033
#04213:00330000
#06812:00260000
#07418:00000000000000000000000000000000000000000000000000260000000000000000000000000000000000000000000000000000000000000000000000000000
#0501f:21
#04315:33333333
#04518:33333333
#04418:00000033
#04419:0033
#0441a:00330000
#00952:13
#0095b:0013
#0105b:0063
#01058:00000013
#01052:0053
#01055:00000013
#03455:13
#03358:13
#04955:00130000
#04952:53
#0495b:0063
#04958:00000013
#04052:00130000
#04058:0013
#04055:00000013
#0135b:13
#01352:0013
#03252:1313
#03255:00130000
#0325b:00000063
#0595b:1313
#05958:00130000
#05952:00000053
#06055:13
#03155:0063
#03158:16
#03152:16
#05858:1653
#05852:16
#02258:00000013
#02255:00000013
#0225b:0000006300000000
#02252:0000005300000000
#04654:00000014
#04652:54000000000000140000000000000000
#04655:0000000000240000000000000000000000000000000000000000000000000000
#04758:00000014
#0475a:64000000000000140000000000000000
#04757:0000000000240000000000000000000000000000000000000000000000000000
#06158:13
#06758:00000013
#06755:0013
#0675b:00130000
#01452:00000033
#0145b:00000043
#04156:00000014
#0755b:00000000000000000000000000000063000000000000000000000000000000000000000000000000000000000000000000000000000000000000000000000000
#06852:00660000
#07458:00000000000000000000000000000000000000000000000000560000000000000000000000000000000000000000000000000000000000000000000000000000
#0245a:0064
#0265b:00000013
#02858:00000014
#02856:00000000000000140000000000000000
#02754:00000014
#02756:00000000000000140000000000000000
#03058:00160000
#03052:00000016
#03852:1414
#0385a:00140000
#05554:00000014
#05556:00000000000000140000000000000000
#05458:00000014
#05456:00000000000000140000000000000000
#05752:00160000
#05758:00000016
#05152:0054
#05352:00000013
#0655a:1414
#06552:00140000
#02356:00000014
#03556:00000014
#05056:00000014
#06256:00000014
#009320:00000013
#010320:23
#0103b0:0013
#010380:00000023
#010321:0013
#010351:00000023
#0133b1:00000013
#0143b1:23
#014321:00001323
#014351:0000000000530000
#0143b0:00001323
#014380:0000000000530000
#019350:00130000
#019340:00000000003300000000000000000000
#019330:0000003300000000
#019320:00000000000000332300000000000000
#020380:00130000
#020390:00000000003300000000000000000000
#0203a0:0000003300000000
#0203b0:00000000000000332300000000000000
#0223b0:0000001300000000
#022380:00000023
#022321:0000001300000000
#022351:00000023
#0233a1:14
#023391:00340000000000000000000000000000
#023381:0034000000000000
#023371:00000034000000000000000000000000
#023361:00240000
#023321:0000001400000000
#023331:00000000000000340000000000000000
#023341:0034
#023351:00000000000000000034000000000000
#023361:0000000000342400
#0233a1:0000000000000014
#023391:00000000000000000000000000000034
#024381:34
#024371:00340000000000000000000000000000
#024361:0024000000000000
#0243a1:0014
#024361:00000024
#025381:1300002300000000
#0253b1:00000033000000000000000000000000
#025351:0000000013000023
#025321:00000000000000000000003300000000
#0263b1:00001323
#027321:14
#027331:00340000000000000000000000000000
#027341:0034000000000000
#027351:00000034000000000000000000000000
#027361:00000000343400240000000000000000
#0283a1:14
#028391:00340000000000000000000000000000
#028381:0034000000000000
#028371:00000034000000000000000000000000
#028361:00000000340034240000000000000000
#0293b1:1300002300000000
#029381:00000033000000000000000000000000
#029321:0000000013000023
#029351:00000000000000000000003300000000
#031351:0013
#031321:00000023
#0323b1:0000000000133300
#033381:23
#0353a1:14
#035391:00340000000000000000000000000000
#035381:0034000000000000
#035371:00000034000000000000000000000000
#035361:00240000
#035321:0000001400000000
#035331:00000000000000340000000000000000
#035341:0034
#035351:00000000000000000034000000000000
#035361:0000000000342400
#036351:1300002300000000
#036321:00000033000000000000000000000000
#036381:0000000013000023
#0363b1:00000000000000000000003300000000
#037321:13
#037351:00230000
#037351:0013
#037321:00000023
#042321:13
#042331:00330000
#042341:0033
#042351:00000033
#043351:33333333
#044351:23
#0443b0:13
#0443a0:00330000
#044390:0033
#044380:00000033
#045380:33333333
#046380:23
#046321:14000000003400240000000000000000
#046341:00340000340000000000000000000000
#046351:0000000034543400000000000000000000000000000000000000000000000000
#0473a1:14000000003400240000000000000000
#047381:00340000340000000000000000000000
#047371:0000000034543400000000000000000000000000000000000000000000000000
#049321:13
#049351:00230000
#0493b1:0013
#049381:00000023
#050321:14
#050331:00340000000000000000000000000000
#050341:0034000000000000
#050351:00000034000000000000000000000000
#050361:00240000
#0503a1:0000001400000000
#050391:00000000000000340000000000000000
#050381:0034
#050371:00000000000000000034000000000000
#050361:0000000000342400
#050321:0000000000000014
#050331:00000000000000000000000000000034
#051341:34
#051351:00340000000000000000000000000000
#051361:0024000000000000
#051321:0014
#051361:00000024
#052351:1300002300000000
#052321:00000033000000000000000000000000
#052381:0000000013000023
#0523b1:00000000000000000000003300000000
#053321:00001323
#0543a1:14
#054391:00340000000000000000000000000000
#054381:0034000000000000
#054371:00000034000000000000000000000000
#054361:00000000343400240000000000000000
#055321:14
#055331:00340000000000000000000000000000
#055341:0034000000000000
#055351:00000034000000000000000000000000
#055361:00000000340034240000000000000000
#056321:1300002300000000
#056351:00000033000000000000000000000000
#0563b1:0000000013000023
#056381:00000000000000000000003300000000
#058381:0013
#0583b1:00000023
#059321:0000000000133300
#060351:23
#062321:14
#062331:00340000000000000000000000000000
#062341:0034000000000000
#062351:00000034000000000000000000000000
#062361:00240000
#0623a1:0000001400000000
#062391:00000000000000340000000000000000
#062381:0034
#062371:00000000000000000034000000000000
#062361:0000000000342400
#063381:1300002300000000
#0633b1:00000033000000000000000000000000
#063351:0000000013000023
#063321:00000000000000000000003300000000
#0643b1:13
#064381:00230000
#064381:0013
#0643b1:00000023
#068321:00160000
#074321:23
#074381:00000000000000000000000000000000000000000000000000160000000000000000000000000000000000000000000000000000000000000000000000000000
#0753b1:00000000000000000000000000000033000000000000000000000000000000000000000000000000000000000000000000000000000000000000000000000000
#0753a1:0000000000000000003300000000000000000000000000000000000000000000
#075391:00000000000000000000000000000000000000000033000000000000000000000000000000000000000000000000000000000000000000000000000000000000
#075381:0000003300000000
#075371:00000022
#0419a0:14
#041990:00540000000000000000000000000000
#041980:0054000000000000
#041970:00000054000000000000000000000000
#041960:00540024
#041920:005c
