This file was generated by Ched 2.7.0.0.
#TITLE ""
#ARTIST ""
#DESIGNER ""
#DIFFICULTY 0
#PLAYLEVEL
#SONGID ""
#WAVE ""
#WAVEOFFSET 0
#JACKET ""
#REQUEST "ticks_per_beat 480"
#00002: 4
#BPM01: 154
#00008: 01
#TIL00: ""
#VOLUME: ""
#HISPEED 00
#MEASUREHS 00
#01014:00140000
#01018:14
#07515:00000000000000000000000000000013000000000000000000000000000000000000000000000000000000000000000000000000000000000000000000000000
#07518:00000000000000000000000000000013000000000000000000000000000000000000000000000000000000000000000000000000000000000000000000000000
#07512:0000003300000000
#07513:00000000000000000000000000000000000000000033000000000000000000000000000000000000000000000000000000000000000000000000000000000000
#07514:0000000000000000003300000000000000000000000000000000000000000000
#0751b:0000003300000000
#0751a:00000000000000000000000000000000000000000033000000000000000000000000000000000000000000000000000000000000000000000000000000000000
#07519:0000000000000000003300000000000000000000000000000000000000000000
#0071a:14000014
#00714:00141400
#00718:0000001400000000
#00710:41
#00812:14
#00818:00141400
#00814:0000001400000000
#00912:00000014
#01418:00140000
#01414:14
#01112:14000014
#01118:00141400
#01114:0000001400000000
#0121a:14
#01214:00141400
#01218:0000001400000000
#0131a:00000014
#0151a:14140000
#01512:00001414
#01618:1414
#01614:00140000
#01712:14140000
#0171a:00001414
#01710:41
#01814:1414
#01818:00140000
#0221a:14
#02212:14
#02218:00000034000034000000000000000000
#02214:00000034000034000000000000000000
#0231a:24140000
#02314:0014000000000000
#02312:00001414
#02318:0000000000140000
#0241a:14
#02414:00140000
#02418:0000001400000000
#02714:14
#02718:00140000
#02712:00001414
#0271a:0000000000140000
#02710:41
#02818:14
#02814:00140000
#0281a:00001414
#02812:0000000000140000
#03314:0014
#03318:00000014
#0331a:24
#03418:0014
#03414:00000014
#03412:24
#03518:14140000
#03512:0014000000000000
#03514:00001414
#0351a:0000000000140000
#03718:14
#03714:00140000
#0371a:0014
#03712:00000014
#0381a:24000014
#0381a:24
#03816:00240000
#03816:00240000
#03812:0024
#03812:0024
#03912:1414
#0391a:00140000
#03918:00000014
#03914:0000000000000014
#03910:41
#0401a:00141414
#04012:00141414
#04614:14
#0461a:00140000
#04612:00001414
#04618:0000000000140000
#04718:14
#04712:00140000
#0471a:00001414
#04714:0000000000140000
#04814:1414
#04818:00140014
#05012:24140000
#05018:0014000000000000
#0501a:00001414
#05014:0000000000140000
#0501f:21
#05112:14
#05118:00140000
#05114:0000001400000000
#05110:41
#05418:14
#05414:00140000
#0541a:00001414
#05412:0000000000140000
#05514:14
#05518:00140000
#05512:00001414
#0551a:0000000000140000
#06018:0014
#06014:00000014
#06012:24
#06010:41
#06114:0014
#06118:00000014
#0611a:24
#06214:14140000
#0621a:0014000000000000
#06218:00001414
#06212:0000000000140000
#06414:14
#06418:00140000
#06412:0014
#0641a:00000014
#06512:24000014
#06512:24
#06516:00240000
#06516:00240000
#0651a:0024
#0651a:0024
#0661a:1414
#06612:00140000
#06614:00000014
#06618:0000000000000014
#06712:00141414
#0671a:00141414
#07412:00000000000000000000000000000000000000000000000000140000000000000000000000000000000000000000000000000000000000000000000000000000
#0741a:00000000000000000000000000000000000000000000000000140000000000000000000000000000000000000000000000000000000000000000000000000000
#0261a:14
#02618:0000003400000000
#02619:00000034000000000000000000000000
#02514:0014
#02518:14
#02914:14
#02918:0014
#0361a:14
#03612:0014
#0411a:14
#04119:0034000000000000
#04118:00340000
#04117:0000003434340000
#05218:0014
#05214:14
#05312:14
#05314:0000003400000000
#05313:00000034000000000000000000000000
#05618:14
#05614:0014
#0631a:0014
#06312:14
#0421f:11
#03112:24
#03012:00240000
#0301a:00000024
#06812:00260000
#06818:00260000
#0581a:24
#0571a:00240000
#05712:00000024
#0191a:0034343434340000
#02012:0034343434340000
#03152:14
#03052:00140000
#0305a:00000014
#07555:00000000000000000000000000000063000000000000000000000000000000000000000000000000000000000000000000000000000000000000000000000000
#07558:00000000000000000000000000000053000000000000000000000000000000000000000000000000000000000000000000000000000000000000000000000000
#06852:00660000
#06858:00560000
#0045a:00000014
#00652:00000014
#02254:0014
#02258:0014
#0225a:64
#02252:54
#02658:00000014
#0265a:64
#0335a:14
#03452:14
#04157:00000014
#0415a:64
#04952:00140000
#0495a:00000014
#0585a:14
#0575a:00140000
#05752:00000014
#06052:14
#0615a:14
#05354:00000014
#05352:54
#07452:00000000000000000000000000000000000000000000000000540000000000000000000000000000000000000000000000000000000000000000000000000000
#0745a:00000000000000000000000000000000000000000000000000640000000000000000000000000000000000000000000000000000000000000000000000000000
#02554:0064
#02558:54
#02954:64
#02958:0054
#0365a:64
#03652:0054
#05258:0054
#05254:64
#05658:54
#05654:0064
#0635a:0064
#06352:54
#0033a0:1400340034340000
#003370:0000000000000034
#004370:0034003434000000
#0043a0:00000024
#005320:1400340034340000
#005350:0000000000000034
#006350:0034003434000000
#006320:00000024
#008320:00000014
#009320:24
#0093a0:00142400
#0103a0:00001424
#0123a0:00000014
#0133a0:24
#013320:00142400
#014320:00001424
#0193a0:1434343434340000
#019370:00000024
#020320:1434343434340000
#020350:00000024
#0213a0:14
#0223a0:34
#022380:00000034000034002400000000000000
#021321:14
#022321:34
#022341:00000034000034002400000000000000
#024321:00001424
#025381:14
#0253a1:00240000
#025341:0014
#025321:00000024
#0263a1:14
#026391:00000034000000000000000000000000
#026381:0000003434002400
#029341:14
#029321:00240000
#029381:0014
#0293a1:00000024
#030321:14240000
#0303a1:00001424
#031381:0014
#0313a1:00000024
#032341:1434
#032321:00340024
#0363a1:14
#036381:00240000
#036321:0014
#036341:00000024
#0413a1:14
#041391:0034000000000000
#041381:00340000
#041371:0000003434342400
#042321:14000034
#042341:00343400
#043321:34000024
#043341:00343400
#0443a1:14000034
#044381:00343400
#0453a1:34000024
#045381:00343400
#049321:14240000
#0493a1:00001424
#0513a1:00001424
#052341:14
#052321:00240000
#052381:0014
#0523a1:00000024
#053321:14
#053331:00000034000000000000000000000000
#053341:0000003434002400
#056381:14
#0563a1:00240000
#056341:0014
#056321:00000024
#0573a1:14240000
#057321:00001424
#058341:0014
#058321:00000024
#059381:1434
#0593a1:00340024
#063321:14
#063341:00240000
#0633a1:0014
#063381:00000024
#068321:00160000
#074321:00000000000000000000000000000000000000000000000000340000000000000000000000000000000000000000000000000000000000000000000000000000
#075351:00000000000000000000000000000033000000000000000000000000000000000000000000000000000000000000000000000000000000000000000000000000
#075341:0000000000000000003300000000000000000000000000000000000000000000
#075331:00000000000000000000000000000000000000000033000000000000000000000000000000000000000000000000000000000000000000000000000000000000
#075321:0000003300002300
#068380:00160000
#0743a0:00000000000000000000000000000000000000000000000000340000000000000000000000000000000000000000000000000000000000000000000000000000
#075380:00000000000000000000000000000033000000000000000000000000000000000000000000000000000000000000000000000000000000000000000000000000
#075390:0000000000000000003300000000000000000000000000000000000000000000
#0753a0:00000000000000000000000000000000000000000033000000000000000000000000000000000000000000000000000000000000000000000000000000000000
#0753b0:0000003300002300
