This file was generated by Ched 2.7.0.0.
#TITLE ""
#ARTIST ""
#DESIGNER ""
#DIFFICULTY 0
#PLAYLEVEL
#SONGID ""
#WAVE ""
#WAVEOFFSET 0
#JACKET ""
#REQUEST "ticks_per_beat 480"
#00002: 4
#BPM01: 190
#00008: 01
#TIL00: "0'0:1"
#VOLUME: ""
#HISPEED 00
#MEASUREHS 00
#0001a:14
#00112:14
#00218:14
#00214:0000000000000024
#0051a:14
#00510:41
#0061a:14
#00714:14
#00814:14
#00918:14
#01018:14
#01112:14
#01212:14
#0131a:14
#01414:14
#01518:14
#01612:14
#0211a:14
#02114:0014
#02110:41
#0221a:14
#02312:14
#02318:0014
#02412:14
#0251a:14
#02512:0014
#0261a:14
#0331a:14
#0341a:14
#03712:0016
#03718:26
#03710:41
#03818:16
#03812:0016
#03918:16
#03912:0016
#04018:16
#04012:0016
#04512:16
#04518:0016
#04612:1616
#04718:16
#04712:0016
#04818:1616
#04912:16
#04918:0016
#05012:16
#05018:0016
#05312:0016
#05318:26
#05310:41
#05512:16
#05518:0016
#05718:1616
#05812:1616
#06518:1414
#06612:1414
#07012:2616
#0701f:21
#07118:1616
#07110:41
#07212:1616
#07318:1616
#07718:0016
#07812:1616
#07918:16
#07912:0016
#08018:1616
#08112:16
#08118:0016
#08612:1616
#08718:1616
#09218:14
#0611f:11
#02910:41
#002340:0000000000000014
#003340:00343434
#004340:24
#0173a0:14
#0183a0:24
#019320:14
#020320:24
#027320:1434
#028320:34342400
#029380:14
#030380:24
#031340:14
#032340:24
#035320:14
#036320:24
#041380:1626
#042320:1626
#043380:1636
#044380:3626
#051320:1636
#052320:26
#054380:1626
#056320:1626
#059380:1626
#060320:1626
#0613a0:14
#0623a0:24
#063340:14
#064340:24
#0673a0:14
#068380:34
#069380:24
#074320:1626
#075380:1626
#076320:1636
#077320:26
#082320:1636
#083320:3626
#084380:1636
#085380:3626
#088320:16363636
#089320:36
#091320:24
#093340:1400000034000034
#094340:0024
