This file was generated by Ched 2.7.0.0.
#TITLE ""
#ARTIST ""
#DESIGNER ""
#DIFFICULTY 0
#PLAYLEVEL
#SONGID ""
#WAVE ""
#WAVEOFFSET 0
#JACKET ""
#REQUEST "ticks_per_beat 480"
#00002: 4
#BPM01: 190
#00008: 01
#TIL00: "0'0:1"
#VOLUME: ""
#HISPEED 00
#MEASUREHS 00
#00016:00120000
#00015:0000001200000000
#00014:1212
#00018:1212
#0001a:00120000
#00012:00000012
#00118:00120000
#00119:0000001200000000
#0011a:0012
#00116:1212
#00114:00120000
#0011c:00000012
#00418:0000120000220000
#00416:0000000000120000
#00515:0000131300000013
#0051b:0000131300000013
#00512:2400000000130000
#00518:0000000000130000
#00510:41
#00612:0013001300000000
#00618:0013001300000000
#0061b:00001313
#00615:00001313
#00617:0000000000000013
#00718:0013001300000013
#00712:2300001300000013
#00715:0000130000130000
#0071b:0000000000130000
#0081b:0013000000000000
#00817:0000001300000000
#00918:0000131300000013
#00912:2400131300000013
#0091b:0000000000130000
#00915:0000000000130000
#0091a:24
#0101b:0013001300000000
#01015:0013001300000000
#01012:00001313
#01018:00001313
#01016:0000000000000013
#01115:0013001300000013
#0111b:2300001300000013
#01118:0000130000130000
#01112:0000000000130000
#01212:0013000000000000
#01216:0000001300000000
#01318:0013130000000000
#01315:00000013000000000000130013000000
#01312:2400001300000000
#0131b:0000000013000013
#0131a:24
#01412:0013000013001300
#01417:0000131300130000
#0151b:1300001300000000
#01515:0013130000000000
#01518:00000013000000000000130013000000
#01512:0000000013000013
#0161b:0013130000000000
#01615:0013001313000000
#01618:0000000000131300
#01612:0000000000000013
#01712:13
#01718:12120000
#01716:0012001200000012
#0171a:0000000012120000
#01714:0000000012120000
#01818:0012001200001200
#01816:0000120000120000
#0181a:0012
#01814:0012
#01912:14
#01918:0012000000001222
#01916:00121200
#01919:0000001200000000
#0191b:0012
#01913:0000000000001212
#02016:00000012
#0211b:1300130000001313
#02118:0013000013000000
#02112:23131300
#02115:0000001300001313
#02110:41
#02215:0013000013000000
#02218:13130023
#0221b:0000001313000000
#02212:0000130000130000
#02312:1300130000001313
#02315:0013000013000000
#0231b:23131300
#02318:0000001300001313
#02418:0013000013000000
#02415:13130023
#02412:0000001313000000
#0241b:0000130000130000
#0251b:1313
#02519:0013000000000000
#02512:2300130000001313
#02514:0000001300000000
#02516:0013
#02517:0000130000001313
#02616:0013001300000000
#0261b:00130000
#0261c:0012
#02612:00000012
#02618:0000000000000013
#02718:0013000023000000
#0271b:0000001300002300
#02715:00231300
#02712:2300000000130000
#03212:0000001300000000
#03218:0013131300000000
#03215:00000013000000002300000000000000
#0321b:0023
#03315:0013000000000013
#0331b:00131313
#03318:0000001300000000
#03312:24242424
#0341b:13131313
#03418:0013000000130000
#03415:0000001300000013
#03412:24242424
#0351b:00130013
#03512:2400001300000013
#03518:0013
#03515:0000000000130000
#0351a:24
#0371b:0000130000130000
#03712:0000130013000013
#03718:0013
#03715:0000000000130000
#03717:00000013
#03714:24
#03710:41
#03816:13
#03817:00130000
#03812:0000001300000000
#03815:00001313
#03818:0000000000130013
#0381b:0013000000000000
#0391b:1300130013000023
#03912:1300130000130000
#03915:0013
#03918:0000000000130000
#03916:00000013
#0401b:0013
#04012:0024240000001300
#04017:00000013
#04215:0013000000130000
#04218:0000001300000013
#04316:000000001400000000220000
#04314:0000241400000000
#04312:000000000014000000000000
#04319:0014
#04313:0000000000000013
#0431a:0000000000000013
#04318:00000022
#04413:00141400
#04415:00000000000000000000000000130013
#04418:0000241400001313
#0441a:001400
#04416:000000000014000000000000
#04515:000000000000003333133333000000000000130000000000
#04518:000000000000003333133333000000000000000000000000
#0451b:0000000000000013
#04512:2400240000000023
#0451a:24240000
#04612:0013002300130000
#04618:00130013
#0461b:0023001300230000
#04615:0000000013000013
#04718:000000000000003333133333000000000000000000000000
#04715:000000000000003333133333000000000000130000000000
#04712:2400240000000013
#0471a:24240000
#0471b:0000000000000023
#0481b:0013002300130000
#04815:00130013
#04812:0023001300230000
#04818:0000000013000013
#04918:0000130000130000
#0491b:0000001300000013
#04915:0000001300000013
#04912:2400000000130000
#0491a:24
#05015:0013231323001300
#05018:0023132313000000
#05016:0000000000000013
#0501b:00000013
#07815:000000000000003333133333000000000000130000000000
#07818:000000000000003333133333000000000000000000000000
#0781b:0000000000000013
#07812:2400240000000023
#0781a:24240000
#07912:0013002300130000
#07918:00130013
#0791b:0023001300230000
#07915:0000000013000013
#05119:13
#05117:0013000000130000
#05113:00130000
#05116:0000001300000013
#0511b:0013
#05112:00000013
#05212:2300001313000000
#05217:0000000000130000
#05214:00000013
#05219:0000000000000013
#0521b:23333333333333330000000000000000
#05312:24130000
#0531b:0000130013000013
#05315:00001313
#05318:0000000000130000
#0531a:24
#05310:41
#05412:0013
#05418:0013000000130013
#05415:00130013
#0541b:0000001300000000
#05512:1300130013000013
#0551b:1300130000130000
#05518:0013
#05515:0000000000130000
#05517:00000013
#05612:0023230000001300
#0561b:0023230000001300
#05816:0013000000130000
#05817:0000001300000000
#05812:00000023
#05717:0000000000000013
#05715:23
#05916:13
#05912:0013
#0591b:23000013
#05917:0023
#06017:13
#06012:1313
#06015:00130013
#06018:0013
#0601b:00000013
#07112:0023000013000000
#0711b:0000001313001300
#07113:0000000000130000
#0711a:0000000000000013
#07114:00000013
#07117:13
#07116:00130000
#07110:41
#07219:13131300
#07214:13131300
#07212:0000001300000000
#0721b:0000000000130000
#07216:0000000000130000
#07217:0000000000000023
#07312:0000001400001300
#07316:0024240000001400
#0731b:0013
#07512:0013000000000000
#07514:0000000000130000
#0751b:0000000000000013
#07519:0000001300000000
#07715:00000000130000000000000000130013
#07718:0000230000001313
#0761b:23002313
#07614:23
#07612:00230023
#07012:0000130013130023
#0701b:0000130013130023
#07016:00000013
#07015:0000001300000000
#0701a:24
#0701f:21
#08018:000000000000003333133333000000000000130000000000
#08015:000000000000003333133333000000000000000000000000
#08012:2400240000000013
#0801a:24240000
#0801b:0000000000000023
#0811b:0013002300130000
#08115:00130013
#08112:0023001300230000
#08118:0000000013000013
#08215:00140000
#08212:2414
#08216:00002414
#0821a:24
#08312:14
#08317:00140000
#08316:00000014
#08318:24
#0831a:0024
#08518:0000000000140014
#08514:24000014
#0851a:14
#08515:00140000
#08512:0024
#08618:0000130000000013
#08615:0000000000130000
#08612:2400002400002400
#0861a:2400002400002400
#08715:0000130000000013
#08718:0000000000130000
#0871a:2400002400002400
#08712:2400002400002400
#08818:0013000000000000
#08815:0000001300000000
#08816:0000000000140014
#0881a:24242424
#08812:24242424
#0911c:1212
#0911a:00120000
#09116:0000001200000000
#09117:0012
#09115:00120012
#09118:0000000000323232
#09214:00120000
#09212:2212
#09218:0000001200000000
#09217:0012
#09219:00120012
#09216:0000000000323232
#0931c:12
#09314:00121200
#09318:0000001200120000
#0931a:0000000012000012
#09316:00000012
#03116:00140000
#0311a:2400002400240024
#03112:2400002400240024
#03012:00130000
#03016:00140014
#03015:1424
#0301a:24
#0291b:00130000
#02917:1424
#02916:00140014
#02912:24
#02910:41
#06412:00000012
#0641a:24
#06415:22222200
#06212:00121212
#0621a:24
#06215:22
#0651b:00130000
#06519:00000015
#06512:27
#0651c:22
#0651a:0024
#06612:22132415
#06617:27
#06712:2613
#06718:2600000000330033
#0671b:0000002323000000
#06715:00000033
#09418:0012001200000000
#09416:00120000
#0941a:0012
#08417:00140000
#0841a:2414
#08416:00002414
#08412:24
#0611f:11
#06112:24
#06119:22222222
#00217:2232
#00314:0024002400000000
#00312:00242400
#00318:00242400
#0031a:0024002400000000
#03618:2424240000000000
#03614:00240024000000000000000000000000
#04116:23
#06312:24
#06319:22220022
#0691c:0022
#06916:0023
#06912:0000000000000000000000000000000000323232323232323232323232323232
#07416:24
#08919:25
#08912:25
#06818:3333333300000000330000000000000032000000330000003300000033000000
#06815:0000000033000000000000003333333300003300000033000000330000003300
#0005a:00220000
#00058:5252
#00156:6262
#00154:00220000
#00252:000000000000001c
#00257:22
#00352:00000014
#00358:00000014
#00552:1400000000130000
#0055a:14
#0055b:0000001300000013
#00456:0000000000520000
#00458:0000000000520000
#00752:0000001300000013
#0075b:0000000000130000
#00856:00000013
#0085b:00000013
#00952:0000001300000013
#0095b:0000000000130000
#0115b:0000001300000013
#01152:0000000000130000
#01257:00000013
#01252:00000013
#0135b:0000000000000053
#01452:00000063
#01552:0000000000000013
#01756:0000000000000052
#01858:00000052
#02056:00001262
#02152:13
#0215b:0000000000000053
#02158:0013
#01953:0000000000000052
#01956:0012
#0195b:0012
#02258:23
#02252:0000000000230000
#02255:0053
#02455:23
#0245b:0000000000230000
#02458:0063
#02352:0000000000000063
#02355:0013
#0235b:13
#02557:0000000000000063
#0255b:0013
#02552:13
#0265c:0042
#02652:00000032
#02755:0063
#02752:0000000000230000
#02855:00000013
#02858:00000013
#03152:0000000000000014
#0315a:0000000000000014
#03255:0013
#03552:14
#0355a:14
#03754:34
#03758:44
#03757:00000023
#0375b:0000000000530043
#03752:0000000000000063
#03856:23
#03857:00230000
#03852:0033000000000000
#0385b:0053000000000000
#03952:1300000000630033
#0395b:1300000000000053
#03956:00000023
#04057:00430000
#04156:13
#04354:0000646400000000
#04356:000000002400000000520000
#04352:130000000024000000000000
#04353:0000000000000023
#0435a:0000000000000023
#04358:00000062
#04552:00543400
#04555:0000002300000000
#04558:0000002300000000
#0455a:00644400
#0455b:0000000000000013
#04758:0000002300000000
#04755:0000002300000000
#0475a:00644400
#04752:0000540034000013
#04955:0000001300000013
#04958:0000000000130000
#05055:00001363
#05058:0013
#05056:0000000000000023
#07855:0000002300000000
#07858:0000002300000000
#0785b:0000000000000013
#07852:00543400
#0785a:00644400
#07952:0013000000130000
#0795b:0000001300000000
#05155:33
#05159:53430000
#05157:0023000000230000
#05153:00633300
#05156:0000002300000023
#0515b:00005343
#05152:00000063
#05252:33
#0525b:53
#05352:14
#0535a:14
#0535b:0000000000000013
#05552:13
#0555b:1300000000530043
#05557:00000023
#05652:00530000
#0565b:00530000
#05655:0013
#05658:0013
#05755:13
#05852:00000053
#0595b:53000063
#05956:53000013
#05957:00136300
#05952:0053
#06057:23
#06055:00130013
#06058:0013
#0625a:54
#06352:64
#06152:64
#06956:1223
#06958:12
#07052:3400000000630033
#0705a:44
#07056:00000023
#0705b:0000000000000053
#07456:14
#07654:13
#0765b:23000063
#07652:00230063
#07256:0000000000530000
#07257:0000000000000053
#07254:13
#07259:00130000
#0735b:00130000
#07356:00541414
#07352:0000002400000000
#07157:23
#07156:00230000
#0715b:0043000000000000
#07152:0053000000000000
#07758:13630000
#07755:00630000
#07752:0013
#0775b:0013
#08058:0000002300000000
#08055:0000002300000000
#08052:0000540034000013
#0805a:00644400
#0815b:0013000000130000
#08152:0000001300000000
#08255:00240000
#08252:6464
#08256:00004424
#0825a:44
#08352:64
#08357:00240000
#08358:44
#0835a:0044
#08652:14000014
#0865a:0000001400000000
#0875a:14000014
#08752:0000001400000000
#08952:55
#08959:55
#0915c:6262
#0915a:00220000
#09254:00220000
#09252:5252
#0305a:6444
#03055:3444
#03056:00240000
#02952:5434
#02957:4434
#02956:00240000
#0645a:54
#06752:5653
#06758:46
#0675b:0053
#06552:57
#06657:67
#0065b:00000063
#00657:0000000000000023
#00655:00000013
#01052:00000053
#01056:0000000000000023
#01058:00000013
#0445a:002400
#04458:0000646400000000
#04456:000000000024000000000000
#0945a:0012
#08457:00240000
#0845a:5454
#08456:00003424
#08452:34
#0855a:54
#08555:00240000
#08554:34
#08552:0034
#0335b:13
#000380:1232
#0003a0:00520000
#0013c0:22
#001361:1232
#001341:00520000
#002321:22
#002370:1232
#002320:000000000000002c
#003320:00000000000000001400343424000000
#003381:00000000000000001400343424000000
#004361:12220000
#004361:0000001200320000
#004321:00000000000000000000000034343434
#005321:24
#004380:0000000000120000
#0043a0:00000000000000000000000034343434
#0053a0:24
#0063b0:00000013
#006370:0000000000000053
#0073b0:23
#008350:0013000000000000
#008320:00000053000000005300000000000000
#008360:00000000000000000053000023000000
#008371:0013
#0083b1:00000000000000000053000023000000
#010321:00000013
#010361:0000000000000053
#011321:23
#012381:0013000000000000
#0123b1:00000053000000005300000000000000
#012371:00000000000000000053000023000000
#012360:0013
#012320:00000000000000000053000023000000
#0133b0:0000000000000013
#014370:0023000000000000
#014320:00000013
#015360:23
#017360:0000000000000012
#018320:0022000000000000
#018380:00000012
#0193c0:22
#019380:0000000000000012
#020380:00000022
#019331:0000000000000012
#020361:0022
#020361:00000012
#021321:23
#0213b1:0000000000000013
#022381:53
#0223b1:0023000000000000
#022351:00001323
#022321:0000000000530000
#023321:0000000000000013
#024351:53
#024321:0023000000000000
#024381:00001323
#0243b1:0000000000530000
#025371:0000000000000013
#0263b1:0023000000000000
#027351:00001333
#027321:0000000000530000
#028351:33000023
#0273b0:000000000000000000000000000000000000000000000000000000000000000000000000000000000000000000000000000000000000000000000000000000000000000000000000000000000000000000000000000000000000000000000000000000000000000000000000000000000000000000000000000000000000000000000000000000000000000000000000000000000000000000000000000000000000000000000000000000000000000000000000000000000000000000000000000000000000000000000000000000000000000000000000000000000000000000000000000000000000000000000000000000000000000000000000000000000000000000000000000000000000000000000000000000000000000000000000000000000000000000000000000000000000000000000000000000000000000000000000000000000000000000000000000000000000000000000000000000000000000000000000000000000000000000000000000000000000000000000000000000000000000000000000000000000000000000000000000000000000000000000000000000000000000000000000000000000000000000000000000000000000000000000000000000000000000000000000000000000000000000000000000000000000000000000000000000000000000000000000000000000000000000000000000000000000000000000000000000000000000000000000000000000000000000000000000000000000000000000000000000000000000000000000000000000000000000000000000000000000000000000000000000000000000000000000000000000000000000000000000000000000000000000000000000000000000000000000000000000000000000000000000000000000000000000000000000000000000000000000000000000000000000000000000000000000000000000000000000000000000000000000000000000000000000000000000000000000000000000000000000000000000000000000000000000000000000000000000000000000000000000000000000000000000000000000000000000000000000000000000000000000000000000000000000000000000000000000000000000000000000000000000000000000000000000000000000000000000000000000000000000000000000000000000000000000000000000000000000000000000000000000000000000000000000000000000000000000000000000000000000000000000000000000000000000000000000000000000000000000000000000000000000000000000000000000000000000000000000000000000000000000000000000000000000000000000000000000000000000000000000000000000000000000000000000000000000000000000000000000000000000000000000000000000000000000000000000000000000000000000000000000000000000000000000000000000000000000000000000000000000000000000000000000000000000000000000000000000000000000000000000000000000000000000000000000000000000000000000000000000000000000000000000000000000000000000000000000000000000000000000000000000000000000000000000000000000000000000000000000000000000000000000000000000000000000000000000000000000000000000000000000000000000000000000000000000000000000000000000000000000000000000000000000000000000000000000000000000000000000000000000000000000000000000000000000000000000000000000000000000000000000000000000000000000000000000000000000000000000000000000000000000000000000000000000000000000000000000000000000000000000000000000000000000000000000000000000000000000000000000000000000130000000000000000000000000000000000000000000000000000000000000000000000000000000000000000000000000000000000000000000000000000000000000000000000000000000000000000000000000000000000000000000000000000000000000000000000000000000000000000000000000000000000000000000000000000000000000000000000000000000000000000000000000000000000000000000000000000000000000000000000000000000000000000000000000000000000000000000000000000000000000000000000000000000000000000000000000000000000000000000000000000000000000000000000000000000000000000000000000000000000000000000000000000000000000000000000000000000000000000000000000000000000000000000000000000000000000000000000000000000000000000000000000000000000000000000000000000000000000000000000000000000000000000000000000000000000000000000000000000000000000000000000000000000000000000000000000000000000000000000000000000000000000000000000000000000000000000000000000000000000000000000000000000000000000000000000000000000000000000000053
#0283a0:345300000000000000000000000000000000000000000000000000000000000000000000000000000000000000000000000000000000000000000000000000000000000000000000000000000000000000000000000000000000000000000000000000000000000000000000000000000000000000000000000000000000000000000000000000000000000000000000000000000000000000000000000000000000000000000000000000000000000000000000000000000000000000000000000000000000000000000000000000000000000000000000000000000000000000000000000000000000000000000000000000000000000000000000000000000000000000000000000000000000000000000000000000000000000000000000000000000000000000000000000000000000000000000000000000000000000000000000000000000000000000000000000000000000000000000000000000000000000000000000000000000000000000000000000000000000000000000000000000000000000000000000000000000000000000000000000000000000000000000000000000000000000000000000000000000000000000000000000000000000000000000000000000000000000000000000000000000000000000000053000000000000000000000000000000000000000000000000000000000000000000000000000000000000000000000000000000000000000000000000000000000000000000000000000000000000000000000000000000000000000000000000000000000000000000000000000000000000000000000000000000000000000000000000000000000000000000000000000000000000000000000000000000000000000000000000000000000000000000000000000000000000000000000000000000000000000000000000000000000000000000000000000000000000000000000000000000000000000000000000000000000000000000000000000000000000000000000000000000000000000000000000000000000000000000000000000000000000000000000000000000000000000000000000000000000000000000000000000000000000000000000000000000000000000000000000000000000000000000000000000000000000000000000000000000000000000000000000000000000000000000000000000000000000000000000000000000000000000000000000000000000000000000000000000000000000000000000000000000000000000000000000000000000000000000000000000000000000000000000000000000000000000000000000000000000000000000000000000000000000000000000000000000000000000000000000000000000000000000000000000000000000000000000000000000000000000000000000000000000000000000000000000000000000000000000000000000000000000000000000000000000000000000000000000000000000000000000000000000000000000000000000000000000000000000000000000000000000000000000000000000000000000000000000000000000000000000000000000000000000000000000000000000000000000000000000000000000000000000000000000000000000000000000000000000000000000000000000000000000000000000000000000000000000000000000000000000000000000000000000000000000000000000000000000000000000000000000000000000000000000000000000000000000000000000000000000000000000000000000000000000000000000000000000000000000000000000000000000000000000000000000000000000000000000000000000000000000000000000000000000000000000000000000000000000000000000000000000000000000000000000000000000000000000000000000000000000000000000000000000000000000000000000000000000000000000000000000000000000000000000000000000000000000000000000000000000000000000000000000000000000000000000000000000000000000000000000000000000000000000000000000000000000000000000000000000000000000000000000000000000000000000000000000000000000000000000000000000000000000000000000000000000000000000000000000000000000000000000000000000000000000000000000000000000000000000000000000000000000000000000000000000000000000000000000000000000000000000000000000000000000000000000000000000000000000000000000000000000000000000000000000000000000000000000000000000000000000000000000000000000000000000000000000000000000000000000000000000000000000000000000000000000000000000000000000000000000000000000000000000000000000000000000000000000000000000000000000000000000000000000000000000000000000000000000000000000000000000000000000000000000000000000000000000000000000000000000000000000000000000000000000000000000000000000000000000000000000000000000000000
#028390:000000000000000000000000000000000000000000000000000000000000000000000000000000000000000000000000000000000000000000000000000000000000000000000000000000000000000000000000000000000000000000000000000000000000000000000000000000000000000000000000000000000000000000000000000000000000000000000000000000000000000000000000000000000000000000000000000000000000000000000000000000000000000000000000000000000000000000000000000000000000000000000000000000000000000000000000000000000000000000000000000000000000000000000000000000000000000000000000000000000000000000000000000000000000000000000000000000000000000000000000000000000000000000000000000000000000000000000000000000000000000000000000000000000000000000000000000000000000000000000000000000000000000000000000000000000000000000000000000000000000000000000000000000000000000000000000000000000000000000000000000000000000000000000000000000000000000000000000000000000000000000000000000000000000000000000000000000000000000000000000345300000000000000000000000000000000000000000000000000000000000000000000000000000000000000000000000000000000000000000000000000000000000000000000000000000000000000000000000000000000000000000000000000000000000000000000000000000000000000000000000000000000000000000000000000000000000000000000000000000000000000000000000000000000000000000000000000000000000000000000000000000000000000000000000000000000000000000000000000000000000000000000000000000000000000000000000000000000000000000000000000000000000000000000000000000000000000000000000000000000000000000000000000000000000000000000000000000000000000000000000000000000000000000000000000000000000000000000000000000000000000000000000000000000000000000000000000000000000000000000000000000000000000000000000000000000000000000000000000000000000000000000000000000000000000000000000000000000000000000000000000000000000000000000000000000000000000000000000000000000000000000000000000000000000000000000000000000000000000000053000000000000000000000000000000000000000000000000000000000000000000000000000000000000000000000000000000000000000000000000000000000000000000000000000000000000000000000000000000000000000000000000000000000000000000000000000000000000000000000000000000000000000000000000000000000000000000000000000000000000000000000000000000000000000000000000000000000000000000000000000000000000000000000000000000000000000000000000000000000000000000000000000000000000000000000000000000000000000000000000000000000000000000000000000000000000000000000000000000000000000000000000000000000000000000000000000000000000000000000000000000000000000000000000000000000000000000000000000000000000000000000000000000000000000000000000000000000000000000000000000000000000000000000000000000000000000000000000000000000000000000000000000000000000000000000000000000000000000000000000000000000000000000000000000000000000000000000000000000000000000000000000000000000000000000000000000000000000000000000000000000000000000000000000000000000000000000000000000000000000000000000000000000000000000000000000000000000000000000000000000000000000000000000000000000000000000000000000000000000000000000000000000000000000000000000000000000000000000000000000000000000000000000000000000000000000000000000000000000000000000000000000000000000000000000000000000000000000000000000000000000000000000000000000000000000000000000000000000000000000000000000000000000000000000000000000000000000000000000000000000000000000000000000000000000000000000000000000000000000000000000000000000000000000000000000000000000000000000000000000000000000000000000000000000000000000000000000000000000000000000000000000000000000000000000000000000000000000000000000000000000000000000000000000000000000000000000000000000000000000000000000000000000000000000000000000000000000000000000000000000000000000000000000000000000000000000000000000000000000000000000000000000000000000000000000000000000000000000000000000
#028380:000000000000000000000000000000000000000000000000000000000000000000000000000000000000000000000000000000000000000000000000000000000000000000000000000000000000000000000000000000000000000000000000000000000000000000000000000000000000000000000000000000000000000000000000000000000000000000000000000000000000000000000000000000000000000000000000000000000000000000000000000000000000000000000000000000000000000000000000000000000000000000000000000000000000000000000000000000000000000000000000000000000000000000000000000000000000000000000000000000000000000000000000000000000000000000000000000000000000000000000000000000000000000000000000000000000000000000000000000000000000000000000000000000000000000000000000000000000000000000000000000000000000000000000000000000000000000000000000000000000000000000000000000000000000000000000000000000000000000000000000000000000000000000000000000000000000000000000000000000000000000000000000000000000000000000000000000000000000000000000000000000000000000000000000000000000000000000000000000000000000000000000000000000000000000000000000000000000000000000000000000000000000000000000000000000000000000000000000000000000000000000000000000000000000000000000000000000000000000000000000000000000000000000000000000000000000000000000000000000000000000000000000000000000000000000000000000000000000000000000000000000000000000000000000000000000000000000000000000000000000000000000000000000000000000000000000000000000000000000000000000000000000000000000000000000000000000000000000000000000000000000000000000000000000000000000000000000000000000000000000000000000000000000000000000000000000000000000000000000000000000000000000000000000000000000000000000000000000000000000000000000000000000000000000000000000000000000000000000000000000000000000000000000000000000000000000000000000000000000000000000000000000000000000000000000000000000000000000000000000000000000000000000000000000000000000000000000000000000000000000345300000000000000000000000000000000000000000000000000000000000000000000000000000000000000000000000000000000000000000000000000000000000000000000000000000000000000000000000000000000000000000000000000000000000000000000000000000000000000000000000000000000000000000000000000000000000000000000000000000000000000000000000000000000000000000000000000000000000000000000000000000000000000000000000000000000000000000000000000000000000000000000000000000000000000000000000000000000000000000000000000000000000000000000000000000000000000000000000000000000000000000000000000000000000000000000000000000000000000000000000000000000000000000000000000000000000000000000000000000000000000000000000000000000000000000000000000000000000000000000000000000000000000000000000000000000000000000000000000000000000000000000000000000000000000000000000000000000000000000000000000000000000000000000000000000000000000000000000000000000000000000000000000000000000000000000000000000000000000000000230000000000000000000000000000000000000000000000000000000000000000000000000000000000000000000000000000000000000000000000000000000000000000000000000000000000000000000000000000000000000000000000000000000000000000000000000000000000000000000000000000000000000000000000000000000000000000000000000000000000000000000000000000000000000000000000000000000000000000000000000000000000000000000000000000000000000000000000000000000000000000000000000000000000000000000000000000000000000000000000000000000000000000000000000000000000000000000000000000000000000000000000000000000000000000000000000000000000000000000000000000000000000000000000000000000000000000000000000000000000000000000000000000000000000000000000000000000000000000000000000000000000000000000000000000000000000000000000000000000000000000000000000000000000000000000000000000000000000000000000000000000000000000000000000000000000000000000000000000000000000000000000000000000000000000000000000000000000000000000000
#029320:1424
#029360:00540000
#0303a0:1424
#030360:00540000
#0323b0:00000000000000001300333333003333
#0333b0:23
#036380:0000143434343434
#037380:24
#0373b0:0000000000130023
#037370:00000053
#037321:0000000000000013
#038361:53
#038321:0023000000000000
#0383b0:0013002300000000
#038370:00530000
#039320:0000000000130023
#039360:00000053
#0393b1:0000000000000013
#040371:5333230000000000
#040320:00140000
#040360:0024
#0413b0:13230000
#041351:00132300
#041380:00001323
#041321:00000013
#042321:23
#0423b0:13230000
#042321:00132300
#0423b0:00001323
#042321:00000013
#043321:23
#0433b0:13230000
#043341:0000145424000000
#043361:005400
#043321:000000000054000000000000
#043361:00000012
#043331:0000000000000053
#044361:22
#043380:00000012
#0433a0:0000000000000053
#044380:22
#044380:0000145424000000
#0443a0:005400
#044360:000000000054000000000000
#045320:00142400
#045350:000000000000003333333333000000000000000000000000
#0453a1:00142400
#045381:000000000000003333333333000000000000000000000000
#0473a1:00142400
#047381:000000000000003333333333000000000000000000000000
#047320:00142400
#047350:000000000000003333333333000000000000000000000000
#050350:00000013
#050360:0000000000000053
#051350:23
#051391:13230000
#051371:0053000000000000
#051330:00132300
#051360:0000005300000000
#0513b1:00001323
#051371:0000000000530000
#051320:00000013
#051360:0000000000000053
#052320:23
#0523b1:13333333333333330000000000000000
#052371:0023
#053321:0000000000000013
#054321:0023000000000000
#0553b1:0000000000130023
#055371:00000053
#056321:00130000
#056351:0000005323000000
#0563b0:00130000
#056380:0000005323000000
#0573b0:13230000
#057351:00132300
#057380:00001323
#057321:00000013
#058321:23
#0583b0:13230000
#058321:00132300
#0583b0:00001323
#058321:00000013
#059361:33000023
#059321:00333300
#0593b0:13
#059370:00230000
#059370:0013
#0593b0:00000033
#060370:53
#0603b0:00230000
#061320:14
#061360:00000022
#0623a0:14
#062380:00000022
#063320:14
#063360:00000022
#063391:00122200
#0643a0:14
#064380:00000022
#064351:1222000000000000
#064351:0000122200000000
#064351:0000000012220000
#065320:17000023
#066370:17
#0663b0:00000023
#067320:1600003333000000
#067350:00000033
#068350:0000000033000000000000003333333300003300000033000000330000003300
#069360:22
#0673b1:0013
#067381:0000000000330033
#068381:3333333300000000330000000000000032000000330000003300000033000000
#069381:22
#069361:0013
#069321:0000000000000000000000000000000000323232323232323232323232323232
#070321:24
#070321:0000000000130023
#070361:00000053
#0703b0:0000000000000013
#071370:53
#0713b0:0023000000000000
#071321:0013002300000000
#071361:00530000
#072361:0000000000130000
#072321:0000000000000023
#072370:0000000000000013
#0733b0:5333230000000000
#073361:00142400
#073321:0000005400000000
#0743b1:13230000
#074360:00132300
#074391:00001323
#074340:00000013
#075340:23
#075371:13230000
#075320:00132300
#075391:00001323
#075340:00000013
#076340:23
#0763b1:13
#076371:00230000
#076320:00130000
#076360:0023
#0763b1:00001333
#077381:23
#076320:00000013
#077350:33330000
#077320:0023
#077381:00130000
#0773b1:0023
#078321:00142400
#078351:000000000000003333333333000000000000000000000000
#0783a0:00142400
#078380:000000000000003333333333000000000000000000000000
#0803a0:00142400
#080380:000000000000003333333333000000000000000000000000
#080321:00142400
#080351:000000000000003333333333000000000000000000000000
#082321:1434
#082351:00340000
#082361:00000034
#083321:3424
#083371:00340000
#0843a1:1434
#084371:00340000
#084361:00000034
#0853a1:3424
#085351:00340000
#089391:15
#0913c1:3232
#0913a1:00520000
#091381:0000000000323232
#092381:22
#089320:15
#091320:22
#092320:1232
#092340:00520000
#092360:0000000000323232
#093360:22
#093340:0000000000000012
#094340:0022000000000000
