This file was generated by Ched 2.7.0.0.
#TITLE ""
#ARTIST ""
#DESIGNER ""
#DIFFICULTY 0
#PLAYLEVEL
#SONGID ""
#WAVE ""
#WAVEOFFSET 0
#JACKET ""
#REQUEST "ticks_per_beat 480"
#00002: 4
#BPM01: 190
#00008: 01
#TIL00: "0'0:1"
#VOLUME: ""
#HISPEED 00
#MEASUREHS 00
#0391b:1300000000000023
#03915:0000000000130000
#03918:0013
#03912:0000130000000023
#05215:0000001300130013
#05218:00001313
#05217:13
#05212:23
#06015:00130013
#06018:0013
#0001b:00000000000000120000000000000000
#00018:12
#00016:0000000000000012
#0001c:0032323232323200
#00113:00003212320032000000000000000000
#00118:00000012
#00418:13130023
#00415:0013000000000000
#00515:00130000
#0051b:0000001300000000
#00512:0000000000130000
#00518:0000000000000013
#00510:41
#00615:0013000013000000
#0061b:0000001300001300
#00712:0013001300000000
#00718:00130000
#0071b:0000000000130000
#00715:0000000000000013
#00818:0013000013000000
#00812:0000001300000000
#00815:00000013
#00915:0000130000000013
#0091b:2300001300000000
#00912:0000000000130000
#01018:0013000000000000
#0101b:0000001300001300
#01015:0013
#01118:0000130000000013
#01112:0013001300000000
#0111b:0000000000130000
#01215:0013000000001300
#01212:0000001300000000
#01218:0013
#01315:0013130013000000
#01318:00000013000000000000130000000000
#0131b:0000001300000000
#01312:00000013
#0131a:24
#0141b:0013
#01415:0000001300000000
#01518:0013130013000000
#01515:00000013000000000000130000000000
#01512:2400001300000000
#0151b:00000013
#01618:0000001300130000
#01612:0013
#01615:00000013
#0161b:0000000000000013
#01714:12120000
#01718:0012001200000000
#01716:0012
#0171a:0000000000120000
#0181a:00120000
#01816:0000001200000000
#01818:0012
#01814:0000000000120000
#01914:0012000000001200
#01918:0000120000000023
#01916:0000001200000000
#0191a:0012
#02012:00000013
#02017:0035350000000000
#02016:0000003700000000
#02115:0013000000000000
#02112:13000013
#02118:0000003300000013
#0211b:23
#02110:41
#02215:0013000000001300
#02218:0000003300000000
#02318:0013000000000000
#0231b:13000013
#02315:0000003300000013
#02312:23
#02418:0013000000001300
#02415:0000003300000000
#02515:0013000000000000
#02512:13000013
#02518:0000003300000013
#0251b:23
#02615:0013000000001300
#02618:0000003300000013
#02712:13
#02715:0013000013000000
#02718:00130000
#0271b:0000001300000000
#03014:0014001400000000
#03018:00140000
#03012:0024
#0301a:0024
#03218:0014001400000000
#03214:00140000
#03212:0024
#0321a:0024
#03514:00140014
#03518:0014
#03815:0000001300130013
#03818:00001313
#03718:0000000000130000
#03715:0013
#0371b:00130000
#03710:41
#04012:0013
#04018:00231300
#04015:0023000000001300
#0401b:00000013
#04315:00130000
#0431b:0013
#04316:00000013
#04318:23
#04312:23
#04418:00130000
#04415:0013
#0441b:00000013
#0451b:0000000000000013
#04512:2400240000000013
#0451a:24240000
#04615:0013001300001300
#04618:0000130000130000
#0461b:0013
#04612:0000000000000013
#04715:00000013
#04718:1300000000000013
#0471a:00240000
#04712:00240000
#04818:0013001300001300
#04815:1300130000000013
#04812:0013
#04915:00130000
#0491a:2400001400000014
#04912:0000000000140000
#05012:0013000000002300
#05015:00130000
#05018:0000001300000000
#0501b:0013
#05017:00000013
#05119:13
#0511b:00130013
#05117:0013
#05114:23
#05116:00230023
#05112:0023
#05512:1300000000000023
#05518:0000000000130000
#05515:0013
#0551b:0000130000000023
#05418:0000001300130013
#05415:00001313
#0541b:0013000000000000
#05412:00130000
#05315:0000000000130000
#05318:0013
#05312:0000130000000013
#0531b:0000130000000013
#0531a:24
#05310:41
#0561b:0013
#05615:00231300
#05618:0023000000001300
#05612:00000013
#05918:00130000
#05912:0013
#05917:00000013
#05915:23
#0591b:23
#05715:2300000023000013
#0571b:23
#05712:00230000
#05718:00000023
#06514:00140000
#06518:00000014
#06516:0014
#06512:24
#06618:00140000
#06614:00000014
#06612:14
#06616:0014
#0661a:24
#0671a:14
#06712:14
#06714:0000002400000000
#06718:0024
#06918:0000001300130013
#06915:00001313
#0701b:0000130000130000
#07015:0000130000130000
#07012:2400000013000023
#07018:0000000013000023
#0701a:24
#0701f:21
#07112:0000001300000000
#07117:0013
#07114:0000000000130000
#07119:00000013
#07116:0000000000000013
#07110:41
#0721b:1300000000000023
#07212:0000130013130000
#07217:0000000013130000
#07216:0000000000000023
#0731b:0013
#07315:0013
#07312:00000013
#07318:00000013
#07615:00130013
#07618:0013
#07612:24
#0761a:24
#0771b:00130013
#07715:00130013
#07712:0013
#07718:0013
#07812:2400240000000013
#0781b:0000000000000013
#0781a:24240000
#0791b:0013000000000000
#07915:00130000
#07918:0000001300001300
#07912:0013
#08018:00000013
#08015:1300000000000013
#08012:00240000
#0801a:00240000
#0811b:00130000
#08112:0013
#08118:00000023
#0821b:00000013
#08212:23
#08312:13
#08315:00132300
#08318:23000013
#0831b:0013
#08416:23000013
#0841b:23000023
#08514:1313
#08512:00130000
#08516:00000013
#08519:2323
#08517:00230000
#0851b:00000023
#08612:13
#08615:0000000000130000
#08618:0000000000000013
#08617:23
#08712:0013000000002300
#0871b:0013000000000000
#08715:0000001300000000
#08718:00001323
#09216:00000012
#0921c:0032323200000000
#09314:00120012
#09318:0000001200000012
#09316:0012
#0931a:0000000000120000
#0611f:11
#06117:27
#06112:24
#00216:2232
#0891a:24
#08914:24
#0031b:0023000000000000
#00318:00230000
#00315:0000002300000000
#00312:0023
#0281b:23
#02818:00330000
#03112:2400002400240024
#0311a:2400002400240024
#0291a:2400000000000024
#02912:2400002400000000
#02916:0000000000240000
#02910:41
#03312:24
#0331a:00000024
#03313:0034000000000000
#03314:00340000
#03315:0000003400000000
#03319:0000000000000034
#03612:24240000
#0361a:24240000
#06212:27
#0621a:24
#06317:27
#06312:24
#06412:27
#06417:0027
#0641a:24
#07412:24
#0741a:24
#07418:00240000
#07416:0024
#07414:00000024
#07512:24
#0751a:24
#07514:00240000
#07516:0024
#07518:00000024
#04118:2323
#04112:23
#0411b:00230000
#04115:00000023
#04212:23
#0421b:23000023
#04218:0023
#04215:00230000
#08815:2323
#0881b:2323
#08812:00230023
#08818:00230023
#0581b:23
#05812:23000023
#05818:00230000
#05815:0023
#09112:22
#09118:0000000000000022
#09116:0032323232323200
#03418:34
#03417:0034000000343434
#09418:0032323200000000
#00252:000000000000001a
#00256:22
#0395b:13
#03955:0000000000130000
#0535a:14
#05355:0000000000130000
#0895a:54
#0005b:00000000000000220000000000000000
#00058:52
#00056:0000000000000062
#00153:00000022000000000000000000000000
#00352:00000013
#00558:13
#0065b:00000053
#00655:0013
#00858:0013
#00855:00000013
#01055:0013
#0105b:00000053
#01258:0013
#01255:00000013
#0145b:0063
#01457:00000013
#0195a:0012
#02158:0000000000000013
#02355:0000000000000013
#02558:0000000000000013
#02855:0013
#02858:0013
#0285b:63
#0355a:14
#03752:14
#0375a:14
#03758:0000000000130000
#03852:0013000000000000
#0385b:0013000000000000
#04055:0013000000000000
#04058:00130000
#04356:00000053
#04552:0014
#0455a:0014
#0475a:0014
#04752:0014
#0495a:4400004400000044
#04952:0000000000340000
#05257:53
#05252:53
#05552:13
#05558:0000000000130000
#05957:00000063
#05658:0013000000000000
#05655:00130000
#06157:57
#06252:67
#06357:57
#06452:67
#06457:0057
#06952:12
#0695c:12
#06758:0054
#06754:0000005400000000
#06752:14
#0675a:14
#07052:1400000000000053
#0705a:14
#07058:0000000000000053
#07155:0013000000000000
#0715b:0013000000000000
#0725b:13
#07252:00130000
#07352:00130000
#07357:00130000
#07655:00000013
#0785a:0014
#07852:0014
#08052:0014
#0805a:0014
#08055:0000000000000053
#07952:0013
#07958:00000013
#0815b:00430000
#08152:0033
#08252:63
#08256:0013
#08456:53
#08452:0000001300000000
#0845b:53
#08457:0000001300000000
#08652:53
#08657:53
#08656:0000001300000000
#0865b:0000001300000000
#08758:0013
#0945c:0012
#09358:0000000000000052
#09152:52
#09158:0000000000000052
#000380:1200000000000022
#0003c0:0032323232323200
#0003b0:00000000000000520000000000000000
#000361:0000000000000012
#001331:00003252320032000000000000000000
#001361:0022
#002361:1232
#002321:000000000000002a
#003321:00001323
#004351:00000000000013333333230000000000
#004381:00000000000000000000000013333333
#005381:23
#0063b1:00000013
#007381:23
#0103b1:00000013
#011381:23
#013381:0000000000000013
#014381:0033230000000000
#0143b1:0013
#014371:00000023
#015351:0000000000000013
#016351:0033230000000000
#017341:0000000000000012
#018341:0022000000000000
#0183a1:00000012
#0193a1:22
#019381:0000000000000013
#020371:0035350000000000
#020361:0000003700000000
#020351:0029
#0213b1:00130000
#021381:0000003323000000
#0223b1:00130000
#022381:0000003323000000
#023321:00130000
#023351:0000003323000000
#024321:00130000
#024351:0000003323000000
#0253b1:00130000
#025381:0000003323000000
#0263b1:00130000
#026381:0000003323000000
#027351:00000013
#028351:0023
#0283b0:13
#028380:00332300
#030320:00001424
#0303a1:00001424
#032321:00001424
#0323a0:00001424
#033320:14
#033330:0034000000000000
#033340:00340000
#033350:0000003424000000
#0333a0:00000014
#033390:0000000000000034
#034380:34
#034370:0034343434343434
#0353a0:24
#036320:0000143434343434
#037320:24
#0363a1:0000143434343434
#0373a1:24
#037321:0000000000000013
#038321:0023000000000000
#0373b0:0000000000000013
#0383b0:0023000000000000
#043360:00000013
#044320:00230000
#045320:00142400
#0453a1:00142400
#0473a1:00142400
#047320:00142400
#052320:13
#052360:00230000
#052371:13
#0523b1:00230000
#059371:00000013
#0603b1:00230000
#061371:17
#061391:00000023
#062321:17
#062341:00000023
#063371:17
#063391:00000023
#064321:17
#064341:0023
#064370:0017
#065390:23
#067340:0000001400000000
#069320:22
#067381:0014
#0693c1:22
#070321:0000000000000013
#071351:0023000000000000
#070380:0000000000000013
#0713b0:0023000000000000
#0723b0:0000000000000013
#073370:0033230000000000
#072361:0000000000000013
#073321:0033230000000000
#0783a1:00142400
#078320:00142400
#080320:00142400
#0803a1:00142400
#080351:0000000000000013
#081321:0023000000000000
#082321:13
#082361:0023
#084361:13
#084321:0000002300000000
#0843b0:13
#084370:0000002300000000
#086320:13
#086360:0000002300000000
#086371:13
#0863b1:0000002300000000
#0893a1:14
#091381:22
#091320:12
#091360:0032323232323222
#091381:0000000000000012
#0923c1:0032323222000000
#092381:0000000000000012
#092391:00000000000000000000000000000032
#0933a1:22
#093381:0000000000000012
#094381:0032323200000000
#0943c1:0022
