This file was generated by Ched 2.7.0.0.
#TITLE ""
#ARTIST ""
#DESIGNER ""
#DIFFICULTY 0
#PLAYLEVEL
#SONGID ""
#WAVE ""
#WAVEOFFSET 0
#JACKET ""
#REQUEST "ticks_per_beat 480"
#00002: 4
#BPM01: 190
#00008: 01
#TIL00: "0'0:1"
#VOLUME: ""
#HISPEED 00
#MEASUREHS 00
#00012:13
#00018:0013
#00115:13
#0011b:0013
#00318:00140014
#00314:0014
#00414:14
#00514:0014
#0051a:24
#00510:41
#00614:00140000
#0061a:1414
#00712:14
#00718:0014
#00818:00140000
#00812:1414
#0091a:14
#00914:0014
#01018:1414
#01012:00140000
#01112:14
#01118:0014
#01214:1414
#0121a:00140000
#01718:1414
#0131a:1414
#01514:1414
#01912:14
#02114:00140000
#0211a:2414
#02110:41
#02212:1414
#02218:00140000
#02318:1414
#02314:00140000
#02412:1414
#0241a:00140000
#0251a:14
#02514:00140000
#02518:0014
#02612:14
#02618:00140000
#02614:0014
#0271a:14140000
#02712:00001414
#03014:14
#0301a:0024
#02912:14
#02918:0024
#02910:41
#03314:00140014
#03318:2414
#03418:1414
#03414:00140014
#0351a:1414
#03512:00140014
#03718:00140000
#03714:0014
#0371a:00000014
#03712:24
#03710:41
#03814:14
#03818:00140000
#03812:0014
#03914:00140000
#03918:0014
#03912:00000014
#0391a:14
#04018:14
#04014:00140000
#0401a:0014
#04112:1414
#04118:00140014
#04214:1414
#0421a:00140014
#0461a:1414
#04614:00140014
#0471a:14
#04714:00240000
#04718:0024
#04812:1414
#04818:00140014
#04912:14
#04916:0014
#0501a:14
#05014:00140000
#05018:0014
#05112:1414
#0511a:00140014
#05314:00140000
#05318:0014
#05312:00000014
#0531a:24
#05310:41
#05418:14
#05414:00140000
#0541a:0014
#05518:00140000
#05514:0014
#0551a:00000014
#05512:14
#05614:14
#05618:00140000
#05612:0014
#0571a:1414
#05714:00140014
#05818:1414
#05812:00140014
#04312:14
#04314:00343400
#04414:14
#04413:00340000
#04412:0034
#0591a:14
#05918:00343400
#06018:14
#06019:00340000
#0601a:0034
#06512:1414
#06518:00140014
#06614:1414
#0661a:00140014
#06712:2414
#0701a:24140000
#07014:00001414
#0701f:21
#07118:14000014
#07114:0014
#07110:41
#07212:14140000
#07218:00001414
#07314:14000014
#07318:0014
#0741a:14140000
#07414:00001414
#07518:14140000
#07512:00001414
#0761a:14000014
#07616:00140000
#07612:0014
#07712:00140000
#07716:0014
#0771a:00000014
#07814:14
#0781a:00240000
#07812:0024
#07918:1414
#07914:00140014
#08018:14
#08012:00240000
#0801a:0024
#08114:1414
#08118:00140014
#08214:00003414
#08212:24
#08418:00003414
#0841a:24
#0861a:0014
#08612:14
#08712:14
#0871a:0014
#08814:1414
#08818:00140014
#09118:0014
#09214:14
#0921a:0014
#09312:14
#0931a:0014
#09314:00000014
#0611f:11
#0611a:24
#03212:0024
#0321a:0024
#0361a:24240000
#04512:24
#04518:00240000
#04514:0024
#05212:24
#06212:24
#06318:24
#06414:24
#06418:0024
#08914:24
#08314:34
#08518:34
#00252:0000000000000014
#0065a:0014
#00852:0014
#01058:0014
#01254:0014
#02052:0014
#02858:0014
#03152:0000000000000014
#03852:0014
#0405a:0014
#04552:14
#05252:64
#05254:0014
#0545a:0014
#05652:0014
#0615a:14
#04454:54
#04352:54
#0595a:54
#06058:54
#06252:14
#06358:14
#06454:14
#06458:0014
#06954:14
#06752:0064
#07158:14
#07354:14
#07852:0014
#0805a:0014
#08252:54
#08254:00000024
#08458:00000024
#0845a:64
#08954:54
#09458:0014
#002320:1400000000000024
#0143a0:1424
#016340:1424
#018380:1424
#019320:0000000014000034
#020320:00342400
#028380:14342400
#031320:1400003400340024
#043320:14
#043340:00343434
#044340:34
#044330:00340000
#044320:00003434
#045320:24
#052320:14
#052340:0024
#0593a0:14
#059380:00343434
#060380:34
#060390:00340000
#0603a0:00003434
#0613a0:24
#067320:1400003434000000
#069340:24
#082320:14
#082340:00003454
#083340:34
#083320:0024
#0843a0:14
#084380:00003454
#085380:34
#0853a0:0024
#089340:14
#091320:24
#093380:0000000000000014
#094380:0034343424000000
