This file was generated by Ched 2.7.0.0.
#TITLE ""
#ARTIST ""
#DESIGNER ""
#DIFFICULTY 0
#PLAYLEVEL
#SONGID ""
#WAVE ""
#WAVEOFFSET 0
#JACKET ""
#REQUEST "ticks_per_beat 480"
#00002: 4
#BPM01: 126
#00008: 01
#TIL00: ""
#VOLUME: ""
#HISPEED 00
#MEASUREHS 00
#00612:16
#0181a:14
#01912:14
#02118:14
#02218:14
#00518:16
#00718:16
#00812:16
#00918:16
#00910:41
#01017:16
#01214:14
#0131a:14
#01412:14
#01518:14
#01614:14
#02012:14
#03918:0016
#03912:26
#04112:0016
#04118:16
#04512:0016
#04518:16
#0451f:11
#05018:0016
#05012:16
#04918:0016
#04912:16
#05112:16
#0511f:21
#05110:0041
#05213:16
#04712:1616
#04818:1616
#05818:14
#05714:14
#0561a:14
#05512:14
#05418:14
#0251a:14
#02510:00410000
#02612:14
#02718:14
#02814:14
#0291a:14
#03012:14
#03118:14
#03214:14
#04012:1616
#04218:1616
#04318:0016
#04312:16
#04310:41
#0171a:14
#01710:41
#03512:26
#00118:26
#04412:26
#03410:41
#01057:26
#00958:56
#05152:66
#05253:26
#001380:16
#002380:26
#003320:16
#004320:26
#009380:16
#010370:56
#011380:26
#023340:14
#024340:24
#0333a0:1434
#0343a0:24
#035320:16
#036320:26
#037380:16
#038380:26
#044320:1626
#046380:1626
#051320:16
#052330:56
#053320:26
#059320:1434
#060320:34003424
