This file was generated by Ched 2.7.0.0.
#TITLE ""
#ARTIST ""
#DESIGNER ""
#DIFFICULTY 0
#PLAYLEVEL
#SONGID ""
#WAVE ""
#WAVEOFFSET 0
#JACKET ""
#REQUEST "ticks_per_beat 480"
#00002: 4
#BPM01: 126
#00008: 01
#TIL00: ""
#VOLUME: ""
#HISPEED 00
#MEASUREHS 00
#00115:00130013
#00118:26
#00218:16
#00215:00130013
#00318:00130013
#00312:26
#00412:16130024
#00418:00130000
#0041a:0024
#00417:00000023
#00415:00000000000000330000000000000000
#00414:0000003300000000
#00413:00000000003300000000000000000000
#00512:2313000024000000
#00515:0000130000000013
#00518:0000001300001300
#0051b:0000000023130000
#0051a:24
#00612:2313000024000000
#00615:0000130000000013
#00618:0000001300001300
#0061b:0000000023130000
#0061a:24
#00718:0000130000130013
#00715:0013001300001300
#00712:13130000
#0071b:13001313
#00713:00330033003300330000000000000000
#0071a:00000000000000000033003300330033
#00812:1313
#0081b:00131300
#00815:0013000000000000
#00818:0000001300000000
#00814:000000000000003300000000
#00813:000000330000000000330000000000000000000000000000000033000000000000000000000000000000000000000000
#00819:000000000000003300000000
#0081a:000000000000000000000000000000330000000000330000000033000000000000000000000000000000000000000000
#00916:00131300
#0091b:00000000001300130000000000000000
#00914:00000013
#00912:24
#0091a:24
#00910:41
#01017:00131300
#01012:00000000001300130000000000000000
#01019:00000013
#0131b:00131313
#01316:00000000001300130000000013000000
#01312:26
#01412:23131313
#01415:0000001300000013
#01418:00131300
#0141b:0000000000130000
#01417:23
#01414:00000000000000000000000000330033
#0141a:00000000000000000033003300000000
#01712:0013000000130013
#01715:00130013
#01718:0000001300130013
#01714:15
#0171b:00001313
#01710:41
#0181b:1300001300001300
#01815:0013001300000000
#01818:00130000
#01812:0000000000130000
#01816:00000013
#01817:0000000000130000
#01814:00000000000000000000003300330000
#01819:00000000000000000000003300330000
#02015:00130000
#02015:00130000
#02012:1300001300001300
#02012:0000001300000000
#02018:0013000000000000
#02017:00000013
#02019:00000000000000000000003300000000
#0201a:0000000000330000
#02112:0013000000000013
#02115:00130000
#02118:0000001300000000
#0211b:0000000000130000
#02218:00130023
#02215:0000001300001300
#02212:0000000000130013
#0221b:0013000000230023
#02515:0013
#0251b:0000000000130000
#02518:12000000260000130000000000000000
#02512:0000261300000013
#02517:00000000000000000000000000000013
#02516:12
#02510:00410000
#02612:1313001300000000
#02618:0013001300000000
#0261b:00130000
#02615:00130000
#02616:0000000000222200
#02619:00000000000000002200002200002200
#02715:00000013
#0271b:1300000000000023
#02712:0000000000000023
#02818:00131300
#02815:0023001300130000
#02812:0013
#0281b:0023000000130000
#0291b:1313000000000013
#02916:13000000000000000000000000000013
#02912:0013
#02915:0000000000130000
#02918:00000013
#03018:0013
#03015:0000001300130000
#0301b:0000000000130000
#03012:0013
#03112:24141414
#03116:1400140014000014
#0321a:24141414
#03216:1400140014000014
#01116:00131300
#0111b:00000000001300130000000000000000
#01114:00000013
#0511b:00000000002300130000000000000000
#05116:0000130000130000
#05119:00000000000000000023001300000000
#05114:0000000013000013
#05117:00000000000000000000000000230013
#05112:24000013
#0511a:24
#0511f:21
#05110:0041
#0541b:00130000
#05412:13000026
#05415:00130000
#05418:0026
#05512:00131313
#05517:00000000001300130000000013000000
#05518:26
#0191b:0013000000130013
#01918:00130013
#01915:0000001300130013
#01912:00001313
#03316:0000000014343434003434341400000000000000153434340034343400000000
#03312:1413
#0331a:14140014
#03315:0000003400000000000000000000000000000034000000000000000015000000
#03313:0034000000000000000000000000000000340000000000000000000000000000
#03314:00340000000000000034000000000000
#03317:0000000000000000000000000034000000000000000000000000000000340000
#03318:00000000000000340000000000000034
#03319:0000000000000000000000000000003400000000000000000000000000000034
#05212:13000000002300130000000000000000
#05217:0000130000130000
#05214:00000000000000000023001300000000
#05219:0000000013000013
#05216:00000000000000000000000000230013
#0521b:00000013
#0531b:13000000002300130000000000000000
#05316:0000130000130000
#05319:00000000000000000023001300000000
#05314:0000000013000013
#05317:00000000000000000000000000230013
#05312:00000013
#0121c:00000000123232320000000000000000
#01212:0026
#01218:00000026
#01615:0013
#01613:00220000
#01612:00000024
#03412:2500000016130000
#0341b:0000000000130000
#03414:00000013
#03419:25000000000000000000000000130000
#03416:0000000000000013
#03410:41
#03515:0000001300000013
#0351b:0000000000130000
#03518:00001313
#03512:24130000
#0351a:24
#03912:24130013
#03915:0000001300130013
#03918:0013
#0391a:24140014
#04118:0000001300130013
#0411b:00130013
#04112:00140014
#04115:0013
#04116:0013000000000000
#0411a:24
#04416:00230013
#04417:0013
#0441b:00230013
#0441a:23
#04418:0023000000000000
#04415:23
#04317:0000130000000013
#04319:00000013
#04315:0000001300000000
#04312:24130000
#04313:0013
#04316:0000000000130000
#04314:00000013
#04318:0013
#0431a:24
#04310:41
#03612:13240000
#03616:0024000000001400
#0361a:24
#03718:0000001300000013
#03712:2400000000130000
#03715:00001313
#0371b:00130000
#0371a:24
#0381b:13
#03812:24130023
#03816:0024000000002400
#0381a:00242400
#03813:00000000003300000000000000000000
#03814:0000003300000000
#03815:00000000000000330000000000000000
#04012:0000230000130000
#0401a:00140014
#04016:0000000000000013
#04018:23
#04015:0023000000000000
#04215:13
#0421b:0013001300002300
#04218:00132300
#04212:0024
#04216:00000024
#04516:0000130000000013
#04514:00000013
#04518:0000001300000000
#0451b:00130000
#0451a:2413
#04517:0000000000130000
#04519:00000013
#04515:0013
#0451f:11
#04512:24
#04617:00130000
#0461a:00000000000000330000000024000000
#04613:23
#04615:0023000000000000
#04618:23000000003300000000000000000000
#04612:00232400
#04616:00000023
#04619:0000003300000000
#0471b:2313000000000000
#04718:0000130000000013
#04715:0000001300001300
#04712:2400000023130000
#0471a:0024
#0481b:2313000000000000
#04818:0000130000000013
#04815:0000001300001300
#04812:2400000023130000
#0481a:0024
#04915:0000130000130013
#04918:0013001300001300
#0491b:13130000
#04912:13001313
#0491a:00330033003300330000000000000000
#04913:00000000000000000033003300330033
#0501b:1313
#05012:00131300
#05018:0013000000000000
#05015:0000001300000000
#05019:000000000000003300000000
#0501a:000000330000000000330000000000000000000000000000000033000000000000000000000000000000000000000000
#05014:000000000000003300000000
#05013:000000000000000000000000000000330000000000330000000033000000000000000000000000000000000000000000
#0561b:23131313
#05618:0000001300000013
#05615:00131300
#05612:0000000000130000
#05616:23
#05619:00000000000000000000000000330033
#05613:00000000000000000033003300000000
#05818:0013
#0581b:00220000
#0581a:00000024
#06015:00000013
#06018:0000000000130000
#06012:00001300001300000000000000000000
#06017:00000023000023000000000000000000
#05912:00001300001300000000000000000000
#0591b:00000000000000000000130000130000
#05917:00000023000023000000000000000000
#05916:00000000000000000000002300002300
#02415:00130000
#02417:0014
#02413:00000015
#02416:12
#02412:0014
#02419:00130015
#0151b:2323
#01515:00230023
#01512:23
#0571b:23
#05712:2323
#05718:00230023
#02318:23
#00452:16630014
#0045a:0014
#0055a:14
#00552:0014
#0065a:14
#00652:0014
#00852:5353
#0085b:00635300
#00855:0023000000001300
#00858:0000002300001300
#00952:14
#0095a:14
#01057:13
#01156:13
#01352:36
#0135b:00001353
#01356:00000053
#01252:0036
#01258:00000046
#01257:13
#0125c:00520000
#01452:13001363
#01457:13
#01455:0000000000000023
#01458:0063
#0145b:0000000000230000
#0255b:0000000000530000
#02558:22160000
#02556:22
#02552:00160000
#0285b:0000000000130000
#02852:0013
#02956:53
#0295b:0053000000000000
#03058:0013
#03055:0000000000130000
#03157:00000012
#03156:54545400
#03257:00000012
#03256:54545400
#05458:0046
#05452:13000036
#05558:46
#05552:00001363
#05557:00000063
#0565b:13001353
#05656:13
#05655:0053
#05658:0000000000000023
#05652:0000000000230000
#00352:16
#00258:16
#00158:16
#0515a:14
#05152:14
#02052:0000001300005300
#02057:00000053
#02156:13
#0215b:13
#02255:0000001300000000
#02258:00130000
#03356:0024002400250000
#03352:64346335
#0335a:44544454
#03355:0000000000000025
#0535b:13
#05252:13
#00752:53530000
#00755:0023002300000000
#0075b:13006363
#00758:0000000000230023
#01754:15
#01759:15
#01558:00130013
#01552:1313
#01652:13
#04255:63
#04252:0014
#04256:00000014
#04657:00630000
#0465a:00000014
#04652:0014
#03856:00000014
#0385a:0014
#03852:00630000
#03952:14
#0435a:14
#03552:14
#0355a:14
#0375a:14
#03752:14
#0415a:14
#04552:14
#0505b:6363
#05052:13536300
#05058:0023000000001300
#05055:0000002300001300
#0495b:63631300
#04958:0023002300000000
#04952:13005353
#04955:0000000000230023
#04752:14
#0475a:0014
#04852:14
#0485a:0014
#0575b:1313
#05755:00130013
#0585b:13
#06055:00000033
#06058:0000000000430000
#0185b:0000001300002300
#01852:0000000000630000
#01856:00000023
#01857:0000000000630000
#01952:13
#01957:13
#04052:00530000
#03459:45
#03452:35
#02456:12
#02459:00130015
#02452:0014
#02358:53
#04456:00530000
#03652:00640000
#004320:00130000
#004330:00000000003300000000000000000000
#004340:0000003300000000
#004350:00000000000000330000000000000000
#004360:0023
#007320:13332300
#007330:00330033003300330000000000000000
#007350:0033003300000000
#0073b1:00001333
#0073a1:00000000000000000033003300330033
#007381:0000000000330033
#0083b1:23
#008320:13000000333333333300000000000000
#008330:000000330000000000330000000000000000000000000000000033000000000000000000000000000000000000000000
#008350:0033000000332300
#008340:000000000000003300000000
#0083b1:00133300
#0083a1:000000000000000000000000000000330000000000330000000033000000000000000000000000000000000000000000
#008381:0000003300332300
#008391:000000000000003300000000
#0093b1:00000000000000000013000000000000
#0093a1:0000000000330000
#009391:00000000000000000000003300000000
#009381:00000023
#0093a1:00000000000000000000000000130000
#009391:0000000000000033
#009381:00000000000000000000000000000033
#010371:23
#010320:13230000
#010320:00000000000000000013000000000000
#010330:0000000000330000
#010340:00000000000000000000003300000000
#010350:00000023
#010330:00000000000000000000000000130000
#010340:0000000000000033
#010350:00000000000000000000000000000033
#011360:23
#0113b1:13230000
#0113b1:00000000000000000013000000000000
#0113a1:0000000000330000
#011391:00000000000000000000003300000000
#011381:00000023
#0113a1:00000000000000000000000000130000
#011391:0000000000000033
#011381:00000000000000000000000000000033
#012371:23
#012320:13230000
#0123c1:00000000123232320000000000000000
#012381:0026
#013361:00000000000000000013333333000000
#014321:23
#0133b0:00000013
#014370:23
#014380:00001323
#0143a0:00000000000000000033003300000000
#0143b0:0000000000330000
#014321:00000013
#014341:00000000000000000000000000330033
#014351:0000000000000033
#015321:23
#0153b0:13
#015380:00530000230000000000000000000000
#015351:00130000
#015321:00000000005300002300000000000000
#0153b0:0013
#015380:00000000000000000053000023000000
#015351:00000013
#015321:00000000000000000000000000530000
#016321:23
#0163c0:12
#016390:00320000
#0163b0:0033
#016380:00000034
#017390:25
#018320:0000000013330033
#018340:00000000000000000000003300330000
#018360:00000033
#019320:23
#018371:0000000000130033
#018391:00000000000000000000003300330000
#0183b1:00000033
#019371:23
#020381:0000001300000000
#020391:00000000000000330000003300000000
#0203a1:0000000033330000
#0203b1:00000000000000000033000000000000
#020371:00000033
#0213b1:23
#020320:00000013
#021360:23
#021350:00001323
#021381:00000013
#022381:23
#022350:13230000
#023380:13
#024380:22
#025380:12260000
#025361:12
#025321:00260000
#0253b1:0000000000130000
#025371:0000000000000023
#026391:0000000012220000
#027321:13
#027351:0023000000000000
#027380:0013000000000000
#0273b0:00230000
#027351:00130000
#027321:0000002300000000
#0273b0:0000001300000000
#027380:0023
#027321:0013
#027351:0000000000230000
#027380:0000000000130000
#0273b0:00000023
#029360:13
#029320:0000002300000000
#0293b1:0013000000000000
#029381:0000002300000000
#0303b1:13
#030381:0023000000000000
#030320:0013000000000000
#030350:00230000
#0303b1:00130000
#030381:0000002300000000
#031361:14545400
#031371:000000000000000000000000000000000000000000000000000000000052000000000000000000000000000000000000000000000000000000000052000000000000000000000000000000000000000000000000000000000000220000000000000000000000000000000000000000000000000000000000
#032361:14545400
#032371:000000000000000000000000000000000000000000000000000000000052000000000000000000000000000000000000000000000000000000000052000000000000000000000000000000000000000000000000000000000000220000000000000000000000000000000000000000000000000000000000
#033321:14240000
#033331:0034000000000000000000000000000000000000000000000000000000000000
#033341:00340000000000000000000000000000
#033351:0000003400000000000000000000000000000000000000000000000000000000
#033361:0000000034343434000000000000000000000000000000000000000000000000
#0333a0:00142400
#033360:0000000000000000003434343400000000000000000000000000000000000000
#033370:0000000000000000000000000034000000000000000000000000000000000000
#033380:00000000000000340000000000000000
#033390:0000000000000000000000000000003400000000000000000000000000000000
#033321:00001425
#033331:0000000000000000000000000000000000340000000000000000000000000000
#033341:00000000000000000034000000000000
#033351:0000000000000000000000000000000000000034000000000000000000000000
#033361:0000000000000000000000000000000000000000353434340000000000000000
#0333a0:00000014
#033360:0000000000000000000000000000000000000000000000000034343400000000
#033350:0000000000000035
#033370:0000000000000000000000000000000000000000000000000000000000340000
#033380:00000000000000000000000000000034
#033390:0000000000000000000000000000000000000000000000000000000000000034
#034390:25
#034380:0000000000000000000000001636363626000000000000000000000000000000
#034390:00000000000000000000000000000000000000000000000000340034003400340000000000000000000000000000000000000000000000000000000000000000
#036320:00140000
#036360:0024
#038320:00130000
#038330:00000000003300000000000000000000
#038340:0000003300000000
#038350:00000000000000330000000000000000
#038360:0023
#040320:00130000
#040350:0023
#042350:13
#042320:0024
#044360:00130000
#044320:0023
#046370:00130000
#046380:00000000003300000000000000000000
#046390:0000003300000000
#0463a0:00000000000000330000000000000000
#0463b0:0023
#0493b0:13332300
#0493a0:00330033003300330000000000000000
#049380:0033003300000000
#049321:00001333
#049331:00000000000000000033003300330033
#049351:0000000000330033
#050321:23
#0503b0:13000000333333333300000000000000
#0503a0:000000330000000000330000000000000000000000000000000033000000000000000000000000000000000000000000
#050380:0033000000332300
#050390:000000000000003300000000
#050321:00133300
#050331:000000000000000000000000000000330000000000330000000033000000000000000000000000000000000000000000
#050351:0000003300332300
#050341:000000000000003300000000
#055371:00000000000000000013333333000000
#0563b1:23
#055320:00000013
#056360:23
#056350:00001323
#056330:00000000000000000033003300000000
#056320:0000000000330000
#0563b1:00000013
#056391:00000000000000000000000000330033
#056381:0000000000000033
#0573b1:23
#057320:13
#057350:00530000230000000000000000000000
#057381:00130000
#0573b1:00000000005300002300000000000000
#057320:0013
#057350:00000000000000000053000023000000
#057381:00000013
#0573b1:00000000000000000000000000530000
#0583b1:23
#058320:1233
#058350:00320000
#058340:00000034
#059320:25
#0593b1:1323000000000000
#059371:0000001300000000
#0593b1:0023
#059320:0000000013230000
#059360:0000000000000013
#060320:23
#0603b1:1323000000000000
#060371:0000001300000000
#0603b1:0023
#060320:0000000013230000
