This file was generated by Ched 2.7.0.0.
#TITLE ""
#ARTIST ""
#DESIGNER ""
#DIFFICULTY 0
#PLAYLEVEL
#SONGID ""
#WAVE ""
#WAVEOFFSET 0
#JACKET ""
#REQUEST "ticks_per_beat 480"
#00002: 4
#BPM01: 126
#00008: 01
#TIL00: ""
#VOLUME: ""
#HISPEED 00
#MEASUREHS 00
#00212:16000016
#00412:16
#00418:00130000
#0041b:00000000000000332300000000000000
#00415:00000023
#0041a:0000003300000000
#00419:00000000003300000000000000000000
#00515:0000130000000013
#00518:0000001300001300
#0051b:23
#00512:0023
#00615:0000130000000013
#00618:0000001300001300
#0061b:23
#00612:0023
#0081b:1313
#00818:00130000
#0091b:00130000
#00912:24
#00919:0000000000330033
#00918:00000000000000000000003300330000
#0091a:00000000000000000033000000000033
#00910:41
#01318:00131300
#01315:0000001300001300
#01312:24
#02012:1300001300000000
#02012:0000001300000000
#02012:0000001300000000
#02018:00001300000000000000003313000000
#02015:00130000
#0201b:0013
#02019:0000000000330000
#0201a:00000000000000000033000000000000
#02215:0000001300000000
#0221b:1300000000000023
#02212:0013000000002300
#02218:0000130000230000
#02815:0000130000130000
#02812:0000001300000000
#02818:0023000013000000
#02918:00000000000000001300000000000013
#02915:0013000000130013
#0291b:13000013
#0071b:13
#00718:00130000
#00712:0013
#00715:00000013
#00719:0033003300000000
#00714:0000000000330033
#0111b:00130000
#01119:0000000000330033
#01118:00000000000000000000003300330000
#0111a:00000000000000000033000000000033
#01215:00000000143434340000000000000000
#01212:0024
#0121a:00000024
#01012:00130000
#01014:0000000000330033
#01015:00000000000000000000003300330000
#01013:00000000000000000033000000000033
#01415:0000001300000000
#01418:00000000130000001300000000333333
#0141b:00000000000000000033333313000000
#01412:23
#01712:0013000000000013
#01718:00130013
#01715:0000001300130000
#0171b:0013
#01710:41
#0181b:1300001300000000
#01815:0013000013000000
#01818:00130000
#01812:00000000000000000000333333333300
#0191b:0013000000000013
#01915:00130013
#01918:0000001300130000
#01912:0013
#02112:0013000000000000
#02118:00130013
#02115:0000001300130013
#0211b:0013
#02518:0000000000130013
#02515:00000000000000001300000000000013
#02512:00240013
#0251a:00240000
#02510:00410000
#02618:13130000
#02615:0013001300000000
#02718:00130013
#02715:0013000000130000
#0271b:1300000013000023
#02712:0000001300000023
#03015:1313
#03018:0013000000130000
#03012:00130000
#0301b:0000001300000000
#03115:1313
#03112:00130000
#03118:0000000000000013
#03215:0000000000000013
#03218:1313
#0321b:00130000
#00118:26000016
#00318:26000016
#0371b:0000130000000013
#03718:00001313
#03715:0000000000130000
#03712:2400001300000000
#03412:0013
#0341b:0000000000130000
#03415:0000000000001313
#03418:00000000000000000000000000130000
#03410:41
#03512:0000130000000013
#03515:00001313
#03518:0000000000130000
#0351b:0000001300000000
#0351a:24
#04312:00130000
#04317:0000001300000000
#04314:0013
#04316:00000013
#04319:0000000000130000
#0431b:0000000000000013
#0431a:24
#04310:41
#0451b:00130000
#04516:0000001300000000
#04519:0013
#04517:00000013
#04514:0000000000130000
#04512:2400000000000013
#0451f:11
#05918:13
#05915:0013
#0591b:00003333003300000000000000000000
#05912:00000000000000000000333300330000
#0471a:00142400
#04715:0000001400000000
#04712:24000014
#04717:0000000000000014
#0481a:00142400
#04815:0000001400000000
#04812:24000014
#04817:0000000000000014
#05012:1414
#05015:00140000
#05115:00130000
#0511a:24000000000000000033000000000000
#0511f:21
#05118:00000000000000000000003300000000
#05119:0000000000330000
#05112:00000000000000000000000000000033
#05113:0000000000000033
#05114:00000000000000000000000000330000
#05110:0041
#04912:14
#04915:00140000
#0491a:0014
#04917:00000014
#04918:0000000000340034
#04914:0034003400000000
#0411b:00130013
#04115:0000000000130000
#04118:0013
#04112:0000001300000013
#04015:0000000000000013
#04018:23230013
#04012:0023000000130000
#03915:0000001300000013
#0391b:00130013
#03912:2400000000130000
#03918:0013
#04218:00130000
#04215:0000001300000000
#0421a:0024
#04214:00000024
#05218:00130000
#05215:00000000000000000000003300000000
#05214:0000000000330000
#05213:00000000000000000033000000000000
#0521b:00000000000000000000000000000033
#0521a:0000000000000033
#05219:00000000000000000000000000330000
#05315:00130000
#05318:00000000000000000000003300000000
#05319:0000000000330000
#0531a:00000000000000000033000000000000
#05312:00000000000000000000000000000033
#05313:0000000000000033
#05314:00000000000000000000000000330000
#05414:00130000
#05419:00130000
#0541a:0024
#05412:00000024
#05515:00131300
#05518:0000001300001300
#0551a:24
#05618:0000001300000000
#05615:00000000130000001300000000333333
#05612:00000000000000000033333313000000
#0561b:23
#05812:1314
#05818:13
#05817:0014
#05815:00230024
#0581a:00000024
#0581b:00230000
#06018:1300000000130000
#06015:00001313
#0601b:00003333003300000000000000000000
#03315:13000014
#03312:00000013330000000000000000000000
#03314:0013
#02412:0014
#0241a:00000014
#02418:00130000
#01518:23
#01515:00230000
#0151a:0024
#01512:00000024
#03815:00240000
#0381a:0024000000000000
#03812:24
#03818:00000024
#03617:00240000
#03612:0024000000000000
#0361a:24
#0461a:24000024
#04612:00240000
#04616:0024000000000000
#0441a:00240000
#04412:24
#04416:0024000000000000
#05715:23
#05718:00230000
#05712:0024
#0571a:00000024
#00455:00000013
#0045b:0013
#00458:00630000
#00452:16
#0055b:13
#00552:0013
#0065b:13
#00652:0013
#0085b:6353
#00858:00630013
#00952:14
#00358:16
#00252:16
#00158:16
#02058:00000053
#0205b:0063
#02255:0000001300000000
#0075b:63
#00758:00630000
#00752:0053
#00755:00000053
#0105b:13
#01152:13
#0125b:13
#01255:00640000
#01252:0014
#0125a:00000014
#01352:14
#01358:0013
#01355:00000063
#01452:13
#01458:0063
#0145b:00000053
#01558:13
#01555:00130000
#0155a:0014
#01552:00000014
#0175a:14
#01952:13
#0215b:13
#02655:0000005300000000
#02658:00530000
#02855:0000000000130000
#02955:0063000000000000
#02552:00140000
#0255a:00140000
#03058:0000000000130000
#03155:6363
#03152:00630000
#03258:5353
#0325b:00530000
#03452:14
#01855:0053
#03852:0014
#03855:00540000
#03858:00000014
#03752:14
#0355a:14
#03657:00640000
#0465a:00000014
#04655:0014
#04652:00640000
#0435a:14
#04552:14
#05052:5464
#05055:00540014
#04952:54
#04955:00540000
#0495a:0064
#04957:00000064
#04752:14
#0475a:0014
#04852:14
#0485a:0014
#0515a:14
#04055:0000000000000053
#04058:00530000
#0425a:0014
#04254:00000014
#03952:14
#04152:0000000000000063
#05252:13
#0535b:13
#05452:13000014
#0545a:0014
#05555:0013
#05558:00000053
#0555a:14
#05655:0053
#05652:00000063
#0565b:13
#05755:13
#05758:00130000
#05752:0014
#0575a:00000014
#0595b:0000001300000000
#05958:53
#05955:0063
#05952:0000000000000013
#06058:53
#0605b:0000001300000000
#06055:00000033
#03355:53000024
#03354:0053
#03352:00000023000000000000000000000000
#0445a:00540000
#02452:0014
#0245a:00000014
#02458:00130000
#02455:13
#004380:00130000
#004390:00000000003300000000000000000000
#0043a0:0000003300000000
#0043b0:00000000000000332300000000000000
#0073b0:1323
#007390:0033003300000000
#007380:00330000
#007321:0013
#007341:0000000000330033
#007351:00000033
#008321:23
#0083b0:1333
#008380:00330023
#0093b0:0013
#0093a0:00000000000000000033000000000033
#009390:0000000000330033
#009380:00000000000000000000003333330000
#0103b0:23
#010320:0013
#010330:00000000000000000033000000000033
#010340:0000000000330033
#010350:00000000000000000000003333330000
#011320:23
#0113b0:0013
#0113a0:00000000000000000033000000000033
#011390:0000000000330033
#011380:00000000000000000000003333330000
#0123b0:23
#012350:00000000143434340000000000000000
#012320:0024
#013350:00000013
#014320:23
#014380:00000000000000001300000000333333
#0143b0:00000000000000000033333333000000
#015380:23
#0163b0:13
#016380:00330000
#0163a0:0034
#016370:00000034
#0173a0:24
#018350:0013
#018320:00000000000000000000333333333300
#019320:23
#0203b0:0013
#0203a0:00000000000000000033000000000000
#020390:0000000000330000
#020380:00000000000000000000003333000000
#0213b0:23
#023350:13
#024350:23
#025320:14240000
#0253a1:14240000
#026381:00130000
#0263b1:00000023
#026350:0000001300000000
#026320:00000023
#029350:0013000000000000
#029320:0000002300000000
#031350:1333
#031320:00330023
#032380:1333
#0323b0:00330023
#033350:13000034
#033320:00000053330000000000000000000000
#033340:0033
#034320:24
#036370:00140000
#0363a0:0024
#038350:00140000
#038320:0024
#040380:00130000
#0403b0:0023
#040350:0000000000000013
#041320:0023000000000000
#041320:0000000000000013
#042350:0023000000000000
#0443a0:00140000
#044370:0024
#046320:00140000
#046350:0024
#049320:1424
#049340:0034003400000000
#049350:00340000
#0493a1:0014
#049381:0000000000340034
#049371:00000034
#0503a1:24
#050320:1434
#050350:00340024
#0513b0:0013
#0513a0:00000000000000000033000000000000
#051390:0000000000330000
#051380:00000000000000000000003323000000
#051351:00000013
#051341:00000000000000000000000000330000
#051331:0000000000000033
#051321:00000000000000000000000000000033
#052321:23
#052321:0013
#052331:00000000000000000033000000000000
#052341:0000000000330000
#052351:00000000000000000000003323000000
#052380:00000013
#052390:00000000000000000000000000330000
#0523a0:0000000000000033
#0523b0:00000000000000000000000000000033
#0533b0:23
#0533b0:0013
#0533a0:00000000000000000033000000000000
#053390:0000000000330000
#053380:00000000000000000000003323000000
#053351:00000013
#053341:00000000000000000000000000330000
#053331:0000000000000033
#053321:00000000000000000000000000000033
#054321:23
#055381:00000013
#0563b1:23
#056351:00000000000000001300000000333333
#056321:00000000000000000033333333000000
#057351:23
#059381:13
#0593b1:00003333003323000000000000000000
#059351:0013
#059321:00000000000000000000333300332300
#060381:13
#0603b1:00003333003323000000000000000000
