This file was generated by Ched 2.7.0.0.
#TITLE ""
#ARTIST ""
#DESIGNER ""
#DIFFICULTY 0
#PLAYLEVEL
#SONGID ""
#WAVE ""
#WAVEOFFSET 0
#JACKET ""
#REQUEST "ticks_per_beat 480"
#00002: 4
#BPM01: 126
#00008: 01
#TIL00: ""
#VOLUME: ""
#HISPEED 00
#MEASUREHS 00
#00212:16
#00412:16
#00512:0016
#00518:26
#00612:0016
#00618:26
#00712:00160016
#00718:2626
#00812:00160000
#00818:2626
#01418:0014
#01414:24
#0151a:00140014
#01512:1414
#01318:0014
#01314:24
#0171a:0014
#01710:41
#01812:14
#01818:0014
#01914:14
#0191a:0014
#0211a:14
#02112:0014
#02218:14
#02214:0014
#02614:14
#02618:00140000
#02012:14
#02514:00140000
#02518:24
#02510:00410000
#03114:0014
#03118:00140000
#0311a:00000014
#03112:24
#03214:0014
#03218:00140000
#0321a:00000014
#03212:24
#03612:16
#03618:0014
#03614:00000014
#03812:16000026
#03818:0026
#04012:16
#0401a:0014
#04014:00000014
#04212:16000016
#04218:0016
#04314:00140000
#0431a:24001414
#04310:41
#04418:00140000
#04412:24001414
#04512:00140000
#04518:00001414
#0451f:11
#0451a:24
#0461a:00140000
#04614:00001414
#04612:24
#04912:00160016
#04918:2626
#05012:00160000
#05018:2626
#05912:00140000
#05918:0014
#05914:00000014
#0601a:14
#06012:00140000
#04714:00140000
#04718:0014
#04712:00000014
#0471a:24
#04814:00140000
#04818:0014
#04812:00000014
#0481a:24
#05114:0014
#05118:00000014
#0511f:21
#05110:0041
#05218:0014
#05212:14
#05214:00000014
#0531a:14
#05312:0014
#05318:00000014
#05414:14000014
#0541a:0014
#05614:0014
#05618:24
#05712:00140014
#0571a:1414
#05514:0014
#05518:24
#01218:00000014
#01214:0014
#0121a:14
#01112:0014
#01118:14
#01014:0014
#0101a:14
#00912:0014
#00910:41
#0231a:14
#02812:14
#02818:00140000
#02714:00140000
#0271a:14
#0291a:14
#02914:00140000
#02918:0014
#02912:00000014
#0301a:14
#03014:00140000
#03018:0014
#03514:0014
#03518:26000014
#03714:0014
#03718:26000014
#03912:0014
#03918:26000014
#04112:0014
#04118:26000014
#00118:26
#00318:26
#02418:24
#02414:0024
#03312:24
#03316:00343434
#03410:41
#00252:16
#00452:16
#00158:16
#00358:16
#00958:16
#01354:14
#01358:0014
#01454:14
#01458:0014
#01756:14
#02052:54
#03652:16
#03852:16
#04052:16
#04252:16
#03558:16
#03758:16
#03958:16
#04158:16
#05158:16
#05654:0014
#05658:14
#05554:0014
#05558:14
#06058:00000014
#0235a:64
#02458:14
#02454:0014
#03352:64
#03058:0014
#008380:00001636
#009380:26
#016320:14
#016330:00340000
#016340:0034
#016350:00000034
#017360:24
#020320:14
#020340:0024
#0233a0:14
#023380:0034
#024380:24
#0253a0:00001424
#026320:00001424
#027380:00001424
#028340:00001424
#033320:14
#033360:00343434
#034360:24
#050380:00001636
#051380:26
#0583a0:14
#058390:00340000
#058380:0034
#058370:00000034
#059360:24
#060380:0000000014342400
