This file was generated by Ched 2.6.4.0.
#TITLE ""
#ARTIST ""
#DESIGNER ""
#DIFFICULTY 0
#PLAYLEVEL
#SONGID ""
#WAVE ""
#WAVEOFFSET 0
#JACKET ""
#REQUEST "ticks_per_beat 480"
#00002: 4
#BPM01: 128
#00008: 01
#TIL00: ""
#HISPEED 00
#MEASUREHS 00
#0231f:11
#02312:14
#0041a:14
#00410:41
#00512:14
#00618:14
#00714:14
#0081a:14
#00912:14
#01018:14
#01114:14
#0121a:14
#0131a:14
#01310:41
#01414:14
#01514:14
#01618:14
#01718:14
#01812:14
#01912:14
#0201a:14
#02114:14
#02218:14
#02210:41
#0241a:14
#02514:14
#02618:14
#02912:0016
#0291f:21
#02918:26
#03018:16
#03012:0016
#03118:16
#03112:0016
#03110:41
#03318:0016
#03312:16
#03412:16
#03418:0016
#03512:16
#03518:0016
#03718:2616
#03812:1616
#03918:16
#03912:0016
#03910:41
#04112:1616
#04218:1616
#04312:16
#04318:0016
#0451a:14
#04612:14
#04718:14
#04710:41
#04814:14
#0491a:14
#05012:14
#05118:14
#05214:14
#027320:14
#028320:3424
#032380:1626
#036320:1626
#040380:1626
#044320:1626
#0533a0:14
#0543a0:0000000000000024
