This file was generated by Ched 2.6.4.0.
#TITLE ""
#ARTIST ""
#DESIGNER ""
#DIFFICULTY 0
#PLAYLEVEL
#SONGID ""
#WAVE ""
#WAVEOFFSET 0
#JACKET ""
#REQUEST "ticks_per_beat 480"
#00002: 4
#BPM01: 128
#00008: 01
#TIL00: ""
#HISPEED 00
#MEASUREHS 00
#0231f:11
#0231b:13
#02316:0014
#02317:0000000000000013
#0041a:2414000000000000
#00416:00140000
#00412:2400001400000000
#00418:00000000000000001300130000000013
#00415:00000000000000000013001300001300
#0041b:00000000000000000000000000130000
#00410:41
#00512:1300001400000013
#0051a:0014000000000000
#00516:00140000
#00518:00000000000000001300130000000013
#00515:00000000000000000013001300000000
#0051b:00000000000000000000000000130000
#00615:13000000000000000013001300001300
#0061a:0014000000000000
#00616:00140000
#00612:0000001400000000
#00618:00000000000000001300130000000013
#0061b:00000000000000000000000000130000
#00712:13000013000000001300000000130013
#0071b:0013000013000013
#00715:00000000000013000000001300000000
#00718:0000000000131300
#00812:00001400000000000000000000130000
#00816:00140000
#0081a:0000001400000000
#00815:26000000000000001300130000000013
#00818:00000000000000000013001300001300
#0091b:1300000000000013
#00912:00001400000000000000000000130000
#00916:00140000
#0091a:0000001400000000
#00915:00000000000000001300130000000013
#00918:00000000000000000013001300000000
#01018:13000000000000000013001300001300
#01012:00001400000000000000000000130000
#01016:00140000
#0101a:0000001400000000
#01015:00000000000000001300130000000013
#0111b:1300001300000000
#01115:00001300000000130000000000000000
#01118:00000013000000000000000000001400
#0111a:00000014
#01114:00000000000000000000000000140000
#01112:00000000000000000000130000000014
#01212:00130013
#0121b:00130013
#01215:0000001300000013
#01218:0013
#01216:24
#01315:00000013000000000000000000000000
#0131b:0000130000131300
#01312:0000001313000013
#01316:00000013
#01317:0013
#01310:41
#01416:1414
#01412:1300001313000013
#0141b:00130013
#01512:13000013
#01516:0014
#01518:0000000000000013
#0151b:00000013
#0161b:00130013
#01612:00130013
#01618:0000001300000013
#01615:2313
#01718:00000013000000000000000000000000
#01712:0000130000131300
#0171b:0000001313000013
#01717:00000013
#01716:0013
#01816:13000000000000001300000000000013
#0181b:1313
#01817:00130013
#01812:00130013
#05212:1300001300001400
#05218:00001300000000130000000000140000
#05215:00000013000000000000000000000000
#0521a:00000000000000000000000000000014
#05214:0000000000000014
#0521b:0000000000130000
#04812:0013000013000013
#04818:00000000000013000000001300000000
#0481b:13000013000000001300000000130013
#04815:0000000000131300
#0191a:1414
#01916:0014001400000000
#01912:0000140014000013
#02016:00131300
#02017:13000013
#0201b:0000001313000000
#02012:2300000000000013
#02116:00000013000000000000000013000000
#0211b:00130013
#02112:1300001313000000
#02117:1313
#02119:0000000000130000
#02114:0000000000000013
#02212:1300000000000013
#0221b:0000001313000000
#02216:0000001313000000
#02217:1300000000000013
#02210:41
#0241b:00131300
#02412:13000013
#02416:0000001313000000
#02417:2300000000000013
#02516:00000013000000000000000013000000
#0251b:00130013
#02512:1300001313000000
#02517:1313
#02519:0000000000130000
#02514:0000000000000013
#02617:13000000000000130000000000000000
#02612:1313
#02616:0000130000001414
#0261b:00000013000000000000001300000000
#0271a:14
#02712:1422
#0271c:00000022
#02816:12
#02818:12
#02917:1300001300001313
#02912:2300000000001313
#02916:0013130000000000
#0291b:0013
#0291f:21
#04512:24000000130000001300130000130000
#04518:0000140000000013
#04515:00000000000000000000000000000013
#04516:00000000000014000000001400000000
#0451b:00000000000000000013000000000000
#0451a:2414000000000000
#0461b:13000000130000001300130000000013
#04615:0000000000000013
#04618:00000000000000000000000000130000
#04612:00000000000014000000001300000000
#04614:00140000
#04616:00001400000000000014000000000000
#04712:13000000130000001300130000130000
#04718:0000140000000013
#04715:00000000000000000000000000000013
#04716:00000000000014000000001400000000
#0471a:0014000000000000
#0471b:00000000000000000013000000000000
#04710:41
#04416:00000013000000000000000014000000
#0441b:00000013000000000000000000000000
#04317:0000000013000013
#04316:00130013
#0431b:00130013
#04312:2400000013000013
#04319:0000000000130000
#04314:0000001300000000
#0431a:24
#03712:2314000013000000
#03716:00140000
#0371a:0000001400000000
#03718:00000000000000000013000000001300
#03715:0000000000130000
#0371b:00000000000000000000001300000000
#03717:23
#0381a:2414000000000000
#03816:00140000
#03812:24000000000014000000001300000000
#0381b:0013
#03815:00000000000000000013000000001300
#03818:0000000000130000
#0391b:00131300
#03912:2400000000000013
#03918:0000001300130000
#0391a:24
#03910:41
#04012:0013000013130000
#04017:0013000000000000
#04014:00130000
#04016:0000001314001400
#0401b:0000001300001313
#04019:00130000
#04115:0013000013000000
#04118:00000000130000000013000000001300
#04112:2400130000130000
#0411b:00000000000013000000001300000000
#0411a:24
#04218:0013000013000000
#04215:00000000130000000013000000001300
#0421b:0000130000130000
#04212:24000000000013000000001300000000
#0421a:24
#05318:00000000120000001200001200001200
#05316:2400001200000000
#05418:00000000120000001200001200001200
#05416:0000001200000000
#03016:0013001400000000
#03012:00131400
#0301b:00130000
#0301a:0014
#03015:00000013
#03018:0000000000000013
#03118:0013001300000013
#03112:1300001300130013
#0311b:13001313
#03115:00130013
#03110:41
#0331b:1300001313000013
#03316:2300000000000013
#03312:0013130000001300
#03417:0013000000000000
#0341b:00131300
#03412:0000131300001300
#03419:0000000000130000
#03414:0000000000000013
#03416:00001414
#03218:0013001300000000
#0321b:00130000
#03212:00001313
#03215:0000000000130000
#0351a:14
#03516:14141400
#03512:00000013
#03514:0000000000000013
#03517:00000013
#03519:0000000000000013
#03616:13000000000000130000000000001300
#0361b:1300000013000013
#03612:00000013000000000000000013000000
#03617:00130013
#0491b:00000000130000001300130000130000
#04915:2600000000000013
#04918:00000000000000000000000000000013
#04916:00000000000014000000001400000000
#04912:00001400000000000013000000000000
#04914:00140000
#05012:13000000130000001300130000000013
#05018:0000140000000013
#05015:00000000000000000000000000130000
#0501a:0000001400000000
#05016:00001400000000000014000000000000
#0501b:00000000000000000000001300000000
#0511b:13000000130000001300130000130000
#05115:0000000000000013
#05118:00000000000000000000000000000013
#05116:00000000000014000000001400000000
#05114:00140000
#05112:00001400000000000013000000000000
#01556:0014
#0185b:5353
#01857:00530053
#01952:0014
#0195a:0014
#02057:53
#02056:0063
#02157:53
#02252:53
#0225b:0063
#02256:0063
#02257:53
#02452:53
#0245b:0063
#02557:53
#02356:0014
#02652:6363
#02656:00530000
#0275a:14
#02752:1452
#0275c:00000052
#02856:52
#02858:52
#02957:5300000000000053
#0295b:0013
#02956:00530000
#02952:0013
#0445b:00000023000000000000000000000000
#04456:00000023000000000000000000000000
#04357:0000000000000063
#04352:0000000000000063
#03758:0000000000000013
#03752:33
#03757:33
#03855:0000000000000013
#03952:0000000000000013
#04158:0000000000000013
#04152:14
#0415a:14
#04255:0000000000000013
#03052:0014
#0305a:0014
#03158:0000005300000013
#0315b:0023
#03152:0000000000000013
#0335b:6363
#03356:0000000000000063
#03352:00630000
#03252:00000033
#0325b:00000043
#03556:54641400
#0365b:5300000053000023
#03657:00630053
#03652:00000053
#03656:0000000000000023
#00452:14
#0045a:14
#00855:16
#04955:16
#04552:14
#0455a:14
#007380:0000132300000000
#011320:0000132300000000
#011380:0000000013230000
#013380:13000023000000000000000000000000
#015380:1323000000000000
#015351:0013230000000000
#0153b0:0000132300000000
#015321:0000001323000000
#017351:13000023000000000000000000000000
#0183b1:13000000000000533300000000000023
#018371:00000053330000000000005333000000
#020371:13
#0203b1:00230000
#020361:0013
#020321:00000023
#021371:13
#0213b1:00000023000000000000000000000000
#022321:13
#022361:00230000
#022370:13
#0223b0:00230000
#0223b0:0013
#022370:00000023
#022361:0013
#022321:00000023
#023351:1323000000000000
#023380:0013230000000000
#023321:0000132300000000
#0233b0:0000001323000000
#024320:13
#024360:00230000
#0243b0:0013
#024370:00000023
#025370:13
#0253b0:00000023000000000000000000000000
#026320:13
#026360:00000023000000000000000000000000
#026360:00130000
#026320:00000000000000230000000000000000
#026320:0013
#026360:00000000000000000000002300000000
#027320:0012
#027360:00000052
#028360:32
#028320:0022
#0273c1:00000012
#028381:32
#0283c1:0022
#029371:13
#0293b1:00230000
#029360:00130000
#029320:0023
#029370:0000000000000013
#0303b0:0023000000000000
#031380:0000001300230000
#0313b0:0053
#032350:0013002300000000
#032320:00330000
#0323b0:00001323
#032380:0000000000330000
#0333b0:13
#033370:00230000
#033321:00130000
#033361:0023
#0333b0:0013
#033370:00000023
#033360:0000000000000013
#034320:0023000000000000
#035360:14
#035320:00240000
#035361:00140000
#0353a1:0024
#0363b1:13
#036371:00000023000000000000000000000000
#036371:00130000
#0363b1:00000000000000230000000000000000
#0363b1:0000000013000053
#036371:00000000000000000000005333000000
#037371:23
#036320:00000013
#036360:0000000000000053
#037320:23
#037350:0000000000001323
#038380:0000000000001323
#039350:00133323
#039320:0000003300330000
#0393b1:0000000000001323
#041351:0000000000001323
#042381:0000000000001323
#043371:0000000000000013
#0443b1:00000053000000000000000000000000
#044371:0023
#043320:0000000000000013
#044360:00000053000000000000000000000000
#044320:0023
#048350:0000132300000000
#0523b0:0000132300000000
#052350:0000000013230000
#054360:00120000220000000000000000000000
