This file was generated by Ched 2.6.4.0.
#TITLE ""
#ARTIST ""
#DESIGNER ""
#DIFFICULTY 0
#PLAYLEVEL
#SONGID ""
#WAVE ""
#WAVEOFFSET 0
#JACKET ""
#REQUEST "ticks_per_beat 480"
#00002: 4
#BPM01: 128
#00008: 01
#TIL00: ""
#HISPEED 00
#MEASUREHS 00
#0231f:11
#02312:0000001300000013
#02314:0013000000000000
#02319:00130000
#02317:0013
#0231b:13
#00415:00130000
#00412:23
#0041b:23000000000000000033330000000000
#00418:00000000000000000000000000003333
#00410:41
#00515:00130000
#0051b:00000000000000000033330000000000
#00518:00000000000000000000000000003333
#00615:00130000
#0061b:00000000000000000033330000000000
#00618:00000000000000000000000000003333
#00818:00130000
#00812:00000000000000000033330000000000
#00815:00000000000000000000000000003333
#0071b:0013
#00715:00000033000000000000130000000000
#00712:00000000000000000000003333333333
#00918:00130000
#00912:00000000000000000033330000000000
#00915:00000000000000000000000000003333
#01018:00130000
#01012:00000000000000000033330000000000
#01015:00000000000000000000000000003333
#01115:0000000000001313
#01118:00000000000000330000000000130013
#0111b:00000033000000000000000000000000
#0121b:00130013
#01218:0013
#01212:0000001300000013
#01215:23
#01318:1300000000130000
#01312:0013
#01315:00000013
#0131b:00000033000000000000000000001300
#01310:41
#01412:1313
#01415:00130013
#0141b:0000001300000013
#01612:00130013
#01615:0013
#0161b:0000001300000013
#01618:23
#01715:1300000000130000
#0171b:0013
#01718:00000013
#01712:00000033000000000000000000001300
#01518:00000013
#01515:0000000000000013
#01818:00130000
#0181b:1313
#01919:0013000000000000
#01914:00130000
#0191b:0000001300000013
#01916:0013
#01912:13
#0201b:13
#02012:0000001313000000
#02018:0000000000000013
#02118:13001313
#02115:0000001300000013
#02112:0000000000130000
#0211b:00000033000000000000000000000000
#0221b:13
#02215:0013
#02218:0000001300000000
#02212:0000000000000013
#02210:41
#02412:13
#0241b:0000001313000000
#02415:0000000000000013
#02515:13001313
#02518:0000001300000013
#0251b:0000000000130000
#02512:00000033000000000000000000000000
#02615:00130000
#02612:1313
#02718:13000013
#02915:00130000
#02912:2313
#02918:0000001300000013
#0291b:0013000000000000
#0291f:21
#03015:00131300
#03018:0000001300000013
#03012:00000013
#03318:00130000
#0331b:2313
#03315:0000001300000013
#03312:0013000000000000
#03418:00130013
#03415:0000001300130000
#0341b:0013
#03412:0000000000000013
#03517:00130000
#0351b:13
#03515:00000013
#03518:0000000000000013
#03115:1300000000001313
#03112:00130000
#0311b:0013000000000000
#03118:0000001300000000
#03110:41
#03218:0013000000330000
#0321b:00331300
#03212:0013000000330000
#03215:00331300
#03615:00000033130000000000000000000000
#03612:13000000000000331300000000000000
#03618:00000033130000000000000000000000
#0361b:13000000000000331300000000000000
#03718:00001300000000000033333300000000
#03715:00130000
#03712:2300001300000000
#0371b:2313
#03815:00001300000000000033333300000000
#03818:00130000
#0381b:2300001300000000
#03812:2313
#03918:0000131300001300
#03915:0000000013130013
#03912:23
#0391b:23
#03910:41
#0401b:0013000000000013
#04018:00130013
#04015:0000001300130000
#04012:0013
#0411b:00001300000000000033333300000000
#04118:00131300
#04115:00000000000013000033333300000000
#04112:2313
#04212:00001300000000000033333300000000
#04215:00131300
#04218:00000000000013000033333300000000
#0421b:2313
#04315:0000131300130000
#0431b:2313
#04318:00000013
#04312:2300000000000013
#04416:00000013000000000000000014000000
#04518:00130000
#04515:00000000000013000000000000003333
#04512:23000000000000000000000000130000
#0451b:23
#04618:00130000
#04615:00000000000013000000000000003333
#04612:00000000000000000000000000130000
#04718:00130000
#04715:00000000000013000000000000003333
#04712:00000000000000000000000000130000
#04710:41
#04812:0013
#0481b:00000033000000000000130000000000
#04818:00000000000000000000003333333333
#05218:0000000000001313
#05215:00000000000000330000000000130013
#05212:00000033000000000000000000000000
#04915:00130000
#04918:00000000000013000000000000003333
#0491b:00000000000000000000000000130000
#05015:00130000
#05018:00000000000013000000000000003333
#0501b:00000000000000000000000000130000
#05115:00130000
#05118:00000000000013000000000000003333
#0511b:00000000000000000000000000130000
#0531b:0000003300000000
#01358:53
#01755:63
#01858:00530000
#0185b:5353
#01956:0013
#0205b:53
#02052:0063
#02158:63
#0225b:53
#02255:0053
#02452:63
#0245b:0053
#02555:53
#02655:00630000
#02652:6363
#02357:0013
#02758:13
#02952:0063
#02958:0000000000000063
#03055:0013
#0335b:0053
#03355:0000000000000053
#03557:00530000
#0355b:5313
#03158:0000006300000000
#03258:0063000000000000
#0325b:0053
#03252:0063000000000000
#03255:0053
#03655:00530013
#03652:6363
#03658:00630013
#0365b:5353
#0375b:0053
#03852:0063
#03955:0000000000000013
#04158:0063
#04152:0063
#04255:0053
#0425b:0053
#04352:0000000000000053
#04456:00000023000000000000000000000000
#0485b:0000000000630000
#00755:0000000000630000
#0495b:00000000000000000000000000530000
#04958:13
#04552:13000000000000000000000000630000
#0455b:13
#04652:00000000000000000000000000630000
#04752:00000000000000000000000000630000
#0505b:00000000000000000000000000530000
#0515b:00000000000000000000000000530000
#00452:13
#0045b:13
#01552:0013
#00852:13
#004380:00000000000000001300000000003333
#0043b0:00000000000000000033333300330000
#005380:23
#005380:00000000000000001300000000003333
#0053b0:00000000000000000033333300330000
#006380:23
#006380:00000000000000001300000000003333
#0063b0:00000000000000000033333300330000
#007380:23
#007320:0013000000000000
#007350:00000033330023000000000000000000
#007350:0000000000130000
#007320:00000000000000000000003333333333
#008320:23
#008350:00000000000000001300000000003333
#008320:00000000000000000033333300330000
#009350:23
#009350:00000000000000001300000000003333
#009320:00000000000000000033333300330000
#010350:23
#010350:00000000000000001300000000003333
#010320:00000000000000000033333300330000
#011350:23
#011380:00001300000000333300230000000000
#0113b0:00000033330033000000000000000000
#013380:13
#0133b0:00000033330023000000000000000000
#015320:1300003323000000
#015350:0033330000000000
#017350:13
#017320:00000033330023000000000000000000
#0183b0:1333
#018380:00330023
#0203b0:13
#020380:00230000
#020320:0013
#020350:00000023
#021380:13
#0213b0:00000033230000000000000000000000
#0223b0:13
#022380:00230000
#022350:0013
#022320:00000023
#024320:13
#024350:00230000
#0243b0:0013
#024380:00000023
#025350:13
#025320:00000033230000000000000000000000
#026320:1333
#026350:00330023
#027350:0013
#028350:0023
#028381:1323
#029321:0013
#029351:00000023
#029381:0000000000000013
#0303b1:0023000000000000
#031381:0000001300000000
#0313b1:0000000000230000
#032381:0013000000332300
#0323b1:0000333333000000
#032320:0013000000332300
#032350:0000333333000000
#0333b0:0013
#033380:00000023
#033350:0000000000000013
#034320:0023000000000000
#0353b0:1323
#035370:00330000
#036320:13000000000000333300000000000000
#036350:00000033330000000000005323000000
#0363b1:13000000000000333300000000000000
#036381:00000033330000000000005323000000
#0373b1:0013
#037381:00000000000000000033333323000000
#038321:0013
#038351:00000000000000000033333323000000
#041381:0013
#0413b1:00000000000000000033333323000000
#041320:0013
#041350:00000000000000000033333323000000
#042350:0013
#042320:00000000000000000033333323000000
#0423b1:0013
#042381:00000000000000000033333323000000
#043321:0000000000000013
#044361:00000053000000000000000000000000
#044321:0023
#045381:00000000000000001333332300000000
#045321:00000000000000000000000000130000
#045351:00000000000000000000000000003333
#046351:23
#046381:00000000000000001333332300000000
#046321:00000000000000000000000000130000
#046351:00000000000000000000000000003333
#047351:23
#047381:00000000000000001333332300000000
#047321:00000000000000000000000000130000
#047351:00000000000000000000000000003333
#048351:23
#048381:0013000000000000
#0483b1:00000033330023000000000000000000
#0483b1:0000000000130000
#048381:00000000000000000000003333333333
#049381:23
#049351:00000000000000001333332300000000
#0493b1:00000000000000000000000000130000
#049381:00000000000000000000000000003333
#050381:23
#050351:00000000000000001333332300000000
#0503b1:00000000000000000000000000130000
#050381:00000000000000000000000000003333
#051381:23
#051351:00000000000000001333332300000000
#0513b1:00000000000000000000000000130000
#051381:00000000000000000000000000003333
#052381:23
#052351:00001300000000333300230000000000
#052321:00000033330033000000000000000000
#053381:13000000330000000000003300000000
#0533b1:0000003333000033
#0543b1:00330000000000000000003300000000
#054381:0000333333000023
