This file was generated by Ched 2.6.4.0.
#TITLE ""
#ARTIST ""
#DESIGNER ""
#DIFFICULTY 0
#PLAYLEVEL
#SONGID ""
#WAVE ""
#WAVEOFFSET 0
#JACKET ""
#REQUEST "ticks_per_beat 480"
#00002: 4
#BPM01: 128
#00008: 01
#TIL00: ""
#HISPEED 00
#MEASUREHS 00
#0231f:11
#02312:14
#0231a:0014
#02316:00140000
#00412:00140000
#0041a:24
#00410:41
#00512:14
#0051a:00140000
#00612:00140000
#0061a:14
#00712:14140000
#0071a:00001414
#00818:00140000
#00814:24
#00914:00140000
#00918:14
#01018:00140000
#01014:14
#01118:14140000
#01114:00001414
#0121a:14
#01212:0014
#01318:14
#01314:00140000
#0131a:0014
#01312:00000014
#01310:41
#0151a:14
#01516:00140000
#01512:0014
#01618:14
#01614:0014
#0171a:14
#01712:00140000
#01718:0014
#01714:00000014
#01912:14
#01916:00140000
#0191a:0014
#02012:14
#0201a:0014
#02114:14140000
#02118:00001414
#02212:14
#02218:0014
#02210:41
#02414:14
#02418:0014
#02512:14140000
#0251a:00001414
#0271a:0014
#02717:00000034
#02912:24140000
#0291a:00001414
#0291f:21
#03014:1414
#03018:00140000
#0311a:14
#03114:00140000
#03118:0014
#03112:00000014
#03110:41
#03318:14140000
#03314:00001414
#0341a:14
#03412:00140000
#03418:0014
#03414:00000014
#03216:00140000
#0321a:14
#0351a:14
#03512:00000014
#03517:00340000
#0361a:14
#03618:00140000
#03616:0014
#03614:00000014
#0371a:00140000
#03712:24
#0381a:14
#03812:00140000
#03912:14
#0391a:00140000
#03914:0014
#03918:00000014
#03910:41
#04012:14
#04015:00340000
#04116:00140000
#0411a:24
#04212:14
#04216:00140000
#04312:14140000
#0431a:00001414
#04415:14
#04512:00140000
#04518:24
#04614:14
#0461a:00140000
#04718:14
#04712:00140000
#04710:41
#04918:00140000
#04912:24
#0501a:14
#05014:00140000
#04814:14140000
#04818:00001414
#05112:14
#05118:00140000
#0521a:14140000
#05212:00001414
#0125a:14
#01552:0014
#0195a:0014
#02252:64
#02258:0064
#0275a:0054
#02754:14
#03054:0014
#0355a:54
#03557:0014
#04052:64
#04455:54
#0045a:14
#04558:14
#004380:00001424
#005340:00001424
#006380:00001424
#008320:00001424
#0093a0:00001424
#010320:00001424
#014380:14240000
#014340:00001424
#0183a0:14000024
#018380:00343400
#022320:14
#022340:00240000
#022380:0014
#0223a0:00000024
#026340:14000034
#026320:00343400
#027340:24
#0273a0:0014
#027370:00000034
#028370:3424
#032320:00001424
#0353a0:14
#035370:00342400
#037360:00001424
#038360:00001424
#040320:14
#040350:00342400
#041320:00001424
#0423a0:00001424
#044350:14
#044320:0024
#0453a0:00001424
#046320:00001424
#0473a0:00001424
#049340:00001424
#050380:00001424
#051340:00001424
#053360:14000000340000003400003400003400
#054360:00340000340000003400003400002400
