This file was generated by Ched 2.7.0.0.
#TITLE ""
#ARTIST ""
#DESIGNER ""
#DIFFICULTY 0
#PLAYLEVEL
#SONGID ""
#WAVE ""
#WAVEOFFSET 0
#JACKET ""
#REQUEST "ticks_per_beat 480"
#00002: 4
#BPM01: 122
#00008: 01
#TIL00: ""
#VOLUME: ""
#HISPEED 00
#MEASUREHS 00
#0121a:14
#0131a:14
#01412:14
#01512:14
#01510:41
#02418:2616
#0241f:11
#01018:0014
#01114:14
#01618:14
#01718:14
#01814:14
#01914:14
#02512:2616
#02612:0016
#02618:26
#02812:2616
#02918:2616
#03018:0016
#03012:26
#03212:0016
#03218:26
#0321f:21
#03412:16
#03418:0016
#03612:0016
#03618:26
#03812:16
#03818:0016
#04218:16
#04212:0016
#04612:16
#04618:0016
#0041a:24
#00414:0024
#00410:41
#0051a:24
#00712:24
#0071a:0024
#00618:0024
#00612:24
#00812:24
#00814:00003434
#00813:00340000
#04018:2626
#04010:41
#04112:2626
#04412:2626
#04518:2626
#00912:00003434
#00913:00340000
#00910:0041
#03310:41
#02010:0041
#008320:14
#008330:00340000
#008340:00003434
#009340:34
#009330:00340000
#009320:00003434
#010320:24
#0203a0:14
#0213a0:24
#022320:14
#023320:24
#027380:1626
#031320:1626
#033380:1626
#035320:1626
#037380:1626
#039320:1626
#043380:1626
#047320:1626
#048380:14
#049380:34
#050380:24
