This file was generated by Ched 2.7.0.0.
#TITLE ""
#ARTIST ""
#DESIGNER ""
#DIFFICULTY 0
#PLAYLEVEL
#SONGID ""
#WAVE ""
#WAVEOFFSET 0
#JACKET ""
#REQUEST "ticks_per_beat 480"
#00002: 4
#BPM01: 122
#00008: 01
#TIL00: ""
#VOLUME: ""
#HISPEED 00
#MEASUREHS 00
#0241f:11
#02414:0000001300130000
#02419:0000000000130000
#0241a:24000000000000130000000000000000
#02418:00000000001300000000000000001200
#02412:24130013
#02416:0000000024000012
#0241b:00000013
#04914:12000000000052520000000052525252
#04916:00005252520000000052520000000000
#0491a:52
#0481a:12000000000052520000000052525252
#04818:00005252520000000052520000000000
#0021a:12000000000052520000000052525252
#00218:00005252520000000052520000000000
#00216:52
#00116:1200000000000000000000005200520000000000000000005200520052005252
#00114:00005252520000000052520000000000
#00118:52
#0351b:0000001300005300
#03518:23000013000000000000000000000000
#03519:00000000000000530053005300000000
#02518:0000000000000012
#02516:0000000024000012
#02519:0000001300130000
#02514:0000001300130000
#02512:24130013
#0251b:00130013
#0251a:24
#03717:00000000000000130013001300130000
#03716:00130013001300000000000000000000
#03712:0000000023131300
#0371b:2313130000000000
#03316:00000000000000130013001300130000
#03317:00130013001300000000000000000000
#0331b:0000000023131300
#03312:2313130000000000
#03310:41
#02712:00001613
#02715:00160000
#02716:0000000000000012
#02718:1600000000000012
#0271b:00000013
#02612:24000000130000130000130000001300
#02617:0000130000000013
#0261b:0000001300131300
#02616:00002413
#0261a:24
#03019:0000001300130013
#03014:00000000000000130000130000001300
#03012:24000000001300000000000000000000
#0301b:00130013
#03016:00002413
#0301a:24
#03117:13
#03112:13000033000033000000130000000000
#03114:0017
#03116:00000000000000000000000000130000
#02813:00000000000000130000000000000000
#02819:0000001300130000
#02815:00000000001300000000000000000000
#02814:0000000000130000
#0281b:00130013
#02816:0000000024000012
#02812:24000013
#02818:0000000000000012
#0281a:24
#02914:0000130000130000
#02916:0000000024000012
#02912:2400001300001300
#02918:0000000000000012
#0291b:00000000000000130000000013000000
#02919:0000130000130000
#0291a:24
#04512:00000013000000130000001300000000
#04518:2613260026132600
#04515:00130000001300000013000000130000
#04115:0013000000130000
#04118:00000013000000000000001300000000
#0411b:00130000001300000013000000130000
#04112:26262626
#04215:0000000000130013
#04212:00000013
#04218:26262626
#0431b:1313
#04318:0013260000132600
#04312:26132613
#04315:0000001300000000
#01317:00000000000000000000001300000000
#01316:00000000000000000013000000000000
#0131b:00130000000000001300000000000000
#01312:13
#01216:00000000001300000000001300000000
#01217:00130000000000000013000000000000
#0121b:00130000
#01212:1313
#03412:00130000000000002300000023000000
#0341b:00000000001300002300000023000000
#03415:0000000000000013
#03418:0000000000130000
#03417:23
#03416:00230000
#0361b:00130000000000000000000000000000
#03615:00000013
#03618:00000000260000000013000026000000
#03612:26000000001300002600000000000000
#03212:00130000260000000000000026000000
#03218:26002613
#03215:00000000000000000013000000000000
#0321b:00000000001300000000000000000000
#0321f:21
#03819:00000013000000000000001300000000
#03816:23000013
#03814:0013000000130000
#03817:00000000000000000013000000000000
#03812:00132300
#0381b:00130000000000000000000000000000
#01118:16
#01018:2600001300131313
#01015:00000000000000130013000000130013
#01012:26130000
#0101b:00130000
#02215:00001300000013000013000000000000
#02218:00130000000000000000130000000000
#02212:00001313
#0221b:13000000130000130000000000000000
#0461b:00000013000000130000001300000000
#04615:0013000000130000
#04618:00130000001300000013000000130000
#04612:26262626
#04718:0000001300000000
#04715:0013000000000000
#04712:13
#02112:00001300000000130000000013000013
#02118:13000000000013000000001300001300
#02115:00130000001300000000130000000000
#0211b:00000000130000000013000000000000
#02015:00000000000000000000000000000013
#0201b:00000000130000130000000000001300
#02017:13000000000000000000001300000000
#02014:00130000000000000000130000000000
#02019:00001300000000000013000000000000
#02016:00000013000000001300000000000000
#02012:0000001300001300
#02010:0041
#01914:0012
#0191a:12
#01818:00000000000000001300001300000000
#01812:24240000
#0181a:24240000
#01712:13
#01717:0013000000000012
#01714:00000013000000000013000000000000
#01716:00000000000000000000001300000000
#01719:0000230000130000
#01715:00000000000000130000000000000000
#01718:2300001300000000
#01713:00000000001300000000000000000000
#0171a:0023
#0171b:00000023
#0161b:0013000000000013
#01619:00000000130000000000001300000000
#01617:00000000000013000013000000000000
#01614:00230000
#01613:0023
#01612:00000023
#01615:23
#0151b:0013
#01512:13
#01510:41
#0141b:00130000000013000000000000000000
#01412:00000000001300000000000000000000
#01417:00130000
#01416:13
#00718:00000013000000000013000000000013
#00715:0013001300130013
#0071b:13000000000000130000000000130000
#00712:00131313
#0041b:13000000130000001300000000000013
#00415:00000013000000130013000000001300
#00418:00001300000013000000130000130000
#00412:13000013
#00410:41
#0061b:13000013
#00612:13000000130000001300000000000013
#00618:00000013000000130013000000001300
#00615:00001300000013000000130000130000
#00515:00000013000000000013000000000013
#00518:0013001300130013
#00512:13000000000000130000000000130000
#0051b:00130013
#00018:12000000000052520000000052525252
#0001a:00005252520000000052520000000000
#03916:00000000002400000000000000000000
#03912:00230000
#0391b:00000023000000000000000000000000
#03915:2323000000000000
#03918:00230000000000000000000000000000
#04412:26262626
#04018:26262626
#04010:41
#00812:26
#00818:00260000
#00814:0026
#00816:00000026
#00914:00000026
#00916:0026
#00912:00260000
#00918:26
#00910:0041
#0135b:0000000000000013
#01352:0000000000000013
#01357:00000000000000000000005300000000
#01356:00000000000000000063000000000000
#01252:0000000000000013
#0125b:0000000000000013
#01256:00000000000000000000006300000000
#01257:00000000000000000053000000000000
#03552:00000013
#04758:00000013
#04755:0013
#0475b:00130000
#04752:13
#01958:00000000000000000000001200000000
#01956:00000012000000000000000000000000
#01556:00000000000000000000001300000000
#01557:00000013000000000000000000000000
#03052:34
#0305a:44
#02952:34000053
#0295a:44
#02956:0000000000000022
#02958:0000000000000022
#0295b:00000063
#02852:34000053
#0285a:44
#02856:0000000000000022
#02858:0000000000000022
#0285b:00000063
#02652:34
#0265a:44
#02552:34000053
#0255a:44
#02558:0000000000000022
#02556:0000000000000022
#0255b:00000063
#03258:4646
#03252:00360036
#04558:46464646
#04152:36363636
#04258:46464646
#04352:3636
#04358:00460046
#03652:3636
#03658:00460046
#03956:00000000005400000000000000000000
#04452:36363636
#04652:36363636
#04058:46464646
#0185a:00440000
#01852:34
#01858:00000000000000000000001300000000
#00852:16
#00858:00160000
#00854:0016
#00856:00000016
#01058:16
#01052:16130000
#0105b:00130000
#00954:00000016
#00956:0016
#00952:00160000
#00958:16
#03757:00000000000000000000000000530000
#03756:00000000006300000000000000000000
#03356:00000000000000000000000000630000
#03357:00000000005300000000000000000000
#02752:00001653
#02755:00160000
#02756:0000000000000022
#02758:1600000000000022
#0275b:00000063
#03152:5300000000530000
#03154:0067
#03156:00000000000000000000000000230000
#02456:0000000000000022
#02452:34000053
#02458:0000000000000022
#0245b:00000063
#0245a:44
#01158:56
#02252:00000013
#0225b:00130000
#02152:00000013
#0215b:00130000
#02052:00000013
#0205b:00130000
#0075b:13
#00752:00001313
#0065b:13
#00652:0013
#0055b:00000013
#00552:13
#0045b:0013
#00452:13
#011380:16
#0113b0:00003333330033330033330033333333
#0123b0:23
#012320:0013230000000000
#0123b0:0000001323000000
#012370:00000000000000000013000000000000
#0123b0:0000000000000023
#012361:00000000000000000000001300000000
#012321:0000000000000023
#013361:0013230000000000
#0133b0:0000132300000000
#013321:0000001323000000
#013361:00000000000000000013000000000000
#013321:0000000000000023
#013370:00000000000000000000001300000000
#0133b0:0000000000000023
#014320:0013230000000000
#014360:00000000000000130000000000000000
#014320:00000000000000000023000000000000
#014371:00000000000000000013000000000000
#0143b1:00000000000000000000002300000000
#014320:00000000000000000000001300000000
#014360:0000000000000023
#0143b1:0000000000000013
#015371:23
#015371:00130023000000000000000000000000
#015320:00000013000000002300000000000000
#015360:00000000000000000013002300000000
#0153b1:00000000000000000000001300000000
#0163b1:23
#018351:00000000000000000013002300000000
#019361:00120022000000000000000000000000
#0193c0:00000012000000002200000000000000
#019380:00000000000000000012002200000000
#019321:00000000000000000000001200000000
#020321:22
#024321:00000013
#024361:0000000000000052
#025321:24
#0243b0:00000013
#024380:0000000000000052
#0253a0:24
#025320:00000013
#025360:0000000000000052
#026320:24
#0253b1:00000013
#025381:0000000000000052
#0263a1:24
#027321:00000013
#027361:0000000000000052
#028321:24
#0273b0:00000013
#027380:0000000000000052
#0283a0:24
#028320:00000013
#028360:0000000000000052
#029320:24
#0283b1:00000013
#028381:0000000000000052
#0293a1:24
#029321:00000013
#029361:0000000000000052
#030321:24
#0293b0:00000013
#029380:0000000000000052
#0303a0:24
#031320:13000033000033000000330000000000
#031340:0037
#031360:00000000000000000000000000530000
#032320:23
#033370:00000000001300000000000000000000
#0333b0:00000000000000230000000000000000
#033360:00000000000000000000000000130000
#034320:23
#035350:00130023000000000000000000000000
#035350:00130000
#035320:00000023
#037360:00000000001300000000000000000000
#037320:00000000000000230000000000000000
#037370:00000000000000000000000000130000
#0383b0:23
#038370:00000000001300002300000000000000
#0383b0:00000000000000000000000000130000
#0393b0:23
#039360:00000000001400000000000000000000
#039370:0000000000000022
#039321:0000000000000013
#040351:23
#040351:00130000000000000000000000000000
#040321:00230000
#040321:00000000001300000000000000000000
#040351:0023
#040351:00000000000000000013000000000000
#040321:00000023
#042321:00130000000000000000000000000000
#042351:00230000
#042351:00000000001300000000000000000000
#042321:0023
#044381:00130000000000000000000000000000
#0443b1:00230000
#0443b1:00000000001300000000000000000000
#044381:0023
#044381:00000000000000000013000000000000
#0443b1:00000023
#0473b1:13230000
#047350:00132300
#047381:00001323
#047320:00000013
#048320:23
#000980:120000000000000000000000000000000000000000000000000000000000000000000000000000000000000000000000000000000000000000000000000000000000000000000000000000000000000000000000000000000000000000000000000000000000000000000000000000000000000000000000000000000000000000000000000000000000000000000000000000000000000000000000000000000000000000000000000000000000000000000000000000000000000000000000000000000000000000000000000000000000000000000000000000000000000000000000000000000000000000000000000000000000000000000000000000000000000000000000000000000000000000000000000000000000000000000000000000000000000000000000000000000000000000000000000000000000000000000000000000000000000000000000000000000000000000000000000000000000000000000000000000000000000000000000000000000000000000000000000000000000000000000000000000000000000000000000000000000000000000000000000000000000000000000000000000000000000000000000000000000000000000000000000000000000000000000000000000000000000000000000000000000000000000000000000000000000000000000000000000000000000000000000000000000000000000000000000000000000000000000000000000000000000000000000000000000000000000000000000000000000000000000000000000000000000000000000000000000000000000000000000000000000000000000000000000000000000000000000000000000000000000000000000000000000000000000000000000000000000000000000000000000000000000000000000000000000000000000000000000000000000000000000000000000000000000000000000000000000000000000000520000000000000000000000000000000000000000000000000000000000000000000000000000000000000000000000000000000000000000000000000000000000000000000000000000000000000000000000000000000000000000000000000000000000000000000000000000000000000000000000520000000000000000000000000000000000000000000000000000000000000000000000000000000000000000000000000000000000000000000000000000000000000000000000000000000000000000000000000000000000000000000000000000000000000000000000000000000000000000000000000000000000000000000000000000000000000000000000000000000000000000000000000000000000000000000000000000000000000000000000000000000000000000000000000000000000000000000000000000000000000000000000000000000000000000000000000000000000000000000000000000000000000000000000000000000000000000000000000000000000000000000000000000000000000000000000000000000000000000000000000000000000000000000000000000000000000000000000000000000000000000000000000000000000000000000000000000000000000000000000000000000000000000000000000000000000000000000000000000000000000000000000000000000000000000000000000000000000000000000000000000000000000000000000000000000000000000000000000000000000000000000000000000000000000000000000000000000000000000000000000000000000000000000000000000000000000000000000000000000000000000000000000000000000000000000000000000000000000000000000000000000000000000000000000000000000000000000000000000000000000000000000000000000000000000000000000000000000000000000000520000000000000000000000000000000000000000000000000000000000000000000000000000000000000000000000000000000000000000000000000000000000000000000000000000000000000000000000000000000000000000000000000000000000000000000000000000000000000000000000000000000000000000000000000000000000000000000000000000000000000000000000000000000000000000000000000000000000000000000000000000000000000000000000000000000000000000000000000000000000000000000000000000000000000000000000000000000000000000000000000000000000000000000000000000000000000000000000000000000000000000000000000000000000000000000000000000000000000000000000000000000000000000000000000000000000000000000000000000000000000000000000000000000000000000000000000000000000000000000000000000000000000000000000000000000000000000000000000000000000000000000000000000000000000000000000000000000000000000000000000000000000000000000000000000000000000000000000000000000000000000000000000000000000000000000000000052525252525252525252
#000990:0000000000000052005200000000000000000000000000000000000000000000000000000000005200520000000000000000000000000000000000000000005200520000000000000000000000000000000000000000005200520000000000000000000000000000000000000000000000000000000000000000000000000000
#0009b0:00520000000000005200000000000000
#0009a0:00005200520000000052520000000000
#000970:00000000005200000000005200000000
#001980:22
#001961:120000000000000000000000000000000000000000000000000000000000000000000000000000000000000000000000000000000000000000000000000000000000000000000000000000000000000000000000000000000000000000000000000000000000000000000000000000000000000000000000000000000000000000000000000000000000000000000000000000000000000000000000000000000000000000000000000000000000000000000000000000000000000000000000000000000000000000000000000000000000000000000000000000000000000000000000000000000000000000000000000000000000000000000000000000000000000000000000000000000000000000000000000000000000000000000000000000000000000000000000000000000000000000000000000000000000000000000000000000000000000000000000000000000000000000000000000000000000000000000000000000000000000000000000000000000000000000000000000000000000000000000000000000000000000000000000000000000000000000000000000000000000000000000000000000000000000000000000000000000000000000000000000000000000000000000000000000000000000000000000000000000000000000000000000000000000000000000000000000000000000000000000000000000000000000000000000000000000000000000000000000000000000000000000000000000000000000000000000000000000000000000000000000000000000000000000000000000000000000000000000000000000000000000000000000000000000000000000000000000000000000000000000000000000000000000000000000000000000000000000000000000000000000000000000000000000000000000000000000000000000000000000000000000000000000000000000000000000000000000000520000000000000000000000000000000000000000000000000000000000000000000000000000000000000000000000000000000000000000000000000000000000000000000000000000000000000000000000000000000000000000000000000000000000000000000000000000000000000000000000520000000000000000000000000000000000000000000000000000000000000000000000000000000000000000000000000000000000000000000000000000000000000000000000000000000000000000000000000000000000000000000000000000000000000000000000000000000000000000000000000000000000000000000000000000000000000000000000000000000000000000000000000000000000000000000000000000000000000000000000000000000000000000000000000000000000000000000000000000000000000000000000000000000000000000000000000000000000000000000000000000000000000000000000000000000000000000000000000000000000000000000000000000000000000000000000000000000000000000000000000000000000000000000000000000000000000000000000000000000000000000000000000000000000000000000000000000000000000000000000000000000000000000000000000000000000000000000000000000000000000000000000000000000000000000000000000000000000000000000000000000000000000000000000000000000000000000000000000000000000000000000000000000000000000000000000000000000000000000000000000000000000000000000000000000000000000000000000000000000000000000000000000000000000000000000000000000000000000000000000000000000000000000000000000000000000000000000000000000000000000000000000000000000000000000000000000000000000000000000000520000000000000000000000000000000000000000000000000000000000000000000000000000000000000000000000000000000000000000000000000000000000000000000000000000000000000000000000000000000000000000000000000000000000000000000000000000000000000000000000000000000000000000000000000000000000000000000000000000000000000000000000000000000000000000000000000000000000000000000000000000000000000000000000000000000000000000000000000000000000000000000000000000000000000000000000000000000000000000000000000000000000000000000000000000000000000000000000000000000000000000000000000000000000000000000000000000000000000000000000000000000000000000000000000000000000000000000000000000000000000000000000000000000000000000000000000000000000000000000000000000000000000000000000000000000000000000000000000000000000000000000000000000000000000000000000000000000000000000000000000000000000000000000000000000000000000000000000000000000000000000000000000000000000000000000000000052525252525252525252
#001951:0000000000000052005200000000000000000000000000000000000000000000000000000000005200520000000000000000000000000000000000000000005200520000000000000000000000000000000000000000005200520000000000000000000000000000000000000000000000000000000000000000000000000000
#001931:00520000000000005200000000000000
#001941:00005200520000000052520000000000
#001971:00000000005200000000005200000000
#002961:22
#0029a0:120000000000000000000000000000000000000000000000000000000000000000000000000000000000000000000000000000000000000000000000000000000000000000000000000000000000000000000000000000000000000000000000000000000000000000000000000000000000000000000000000000000000000000000000000000000000000000000000000000000000000000000000000000000000000000000000000000000000000000000000000000000000000000000000000000000000000000000000000000000000000000000000000000000000000000000000000000000000000000000000000000000000000000000000000000000000000000000000000000000000000000000000000000000000000000000000000000000000000000000000000000000000000000000000000000000000000000000000000000000000000000000000000000000000000000000000000000000000000000000000000000000000000000000000000000000000000000000000000000000000000000000000000000000000000000000000000000000000000000000000000000000000000000000000000000000000000000000000000000000000000000000000000000000000000000000000000000000000000000000000000000000000000000000000000000000000000000000000000000000000000000000000000000000000000000000000000000000000000000000000000000000000000000000000000000000000000000000000000000000000000000000000000000000000000000000000000000000000000000000000000000000000000000000000000000000000000000000000000000000000000000000000000000000000000000000000000000000000000000000000000000000000000000000000000000000000000000000000000000000000000000000000000000000000000000000000000000000000000000000000520000000000000000000000000000000000000000000000000000000000000000000000000000000000000000000000000000000000000000000000000000000000000000000000000000000000000000000000000000000000000000000000000000000000000000000000000000000000000000000000520000000000000000000000000000000000000000000000000000000000000000000000000000000000000000000000000000000000000000000000000000000000000000000000000000000000000000000000000000000000000000000000000000000000000000000000000000000000000000000000000000000000000000000000000000000000000000000000000000000000000000000000000000000000000000000000000000000000000000000000000000000000000000000000000000000000000000000000000000000000000000000000000000000000000000000000000000000000000000000000000000000000000000000000000000000000000000000000000000000000000000000000000000000000000000000000000000000000000000000000000000000000000000000000000000000000000000000000000000000000000000000000000000000000000000000000000000000000000000000000000000000000000000000000000000000000000000000000000000000000000000000000000000000000000000000000000000000000000000000000000000000000000000000000000000000000000000000000000000000000000000000000000000000000000000000000000000000000000000000000000000000000000000000000000000000000000000000000000000000000000000000000000000000000000000000000000000000000000000000000000000000000000000000000000000000000000000000000000000000000000000000000000000000000000000000000000000000000000000000000520000000000000000000000000000000000000000000000000000000000000000000000000000000000000000000000000000000000000000000000000000000000000000000000000000000000000000000000000000000000000000000000000000000000000000000000000000000000000000000000000000000000000000000000000000000000000000000000000000000000000000000000000000000000000000000000000000000000000000000000000000000000000000000000000000000000000000000000000000000000000000000000000000000000000000000000000000000000000000000000000000000000000000000000000000000000000000000000000000000000000000000000000000000000000000000000000000000000000000000000000000000000000000000000000000000000000000000000000000000000000000000000000000000000000000000000000052525252525252525252220000000000000000000000000000000000000000000000000000000000000000000000000000000000000000000000000000000000000000000000000000000000000000000000000000000000000000000000000000000000000000000000000000000000000000000000000000000000000000000000
#002990:0000000000000052005200000000000000000000000000000000000000000000000000000000005200520000000000000000000000000000000000000000005200520000000000000000000000000000000000000000005200520000000000000000000000000000000000000000000000000000000000000000000000000000
#002970:00520000000000005200000000000000
#002980:00005200520000000052520000000000
#0029b0:00000000005200000000005200000000
#0359b0:0000001300002300
#035990:00000000000000530053005300000000
#0489a0:120000000000000000000000000000000000000000000000000000000000000000000000000000000000000000000000000000000000000000000000000000000000000000000000000000000000000000000000000000000000000000000000000000000000000000000000000000000000000000000000000000000000000000000000000000000000000000000000000000000000000000000000000000000000000000000000000000000000000000000000000000000000000000000000000000000000000000000000000000000000000000000000000000000000000000000000000000000000000000000000000000000000000000000000000000000000000000000000000000000000000000000000000000000000000000000000000000000000000000000000000000000000000000000000000000000000000000000000000000000000000000000000000000000000000000000000000000000000000000000000000000000000000000000000000000000000000000000000000000000000000000000000000000000000000000000000000000000000000000000000000000000000000000000000000000000000000000000000000000000000000000000000000000000000000000000000000000000000000000000000000000000000000000000000000000000000000000000000000000000000000000000000000000000000000000000000000000000000000000000000000000000000000000000000000000000000000000000000000000000000000000000000000000000000000000000000000000000000000000000000000000000000000000000000000000000000000000000000000000000000000000000000000000000000000000000000000000000000000000000000000000000000000000000000000000000000000000000000000000000000000000000000000000000000000000000000000000000000000000000000520000000000000000000000000000000000000000000000000000000000000000000000000000000000000000000000000000000000000000000000000000000000000000000000000000000000000000000000000000000000000000000000000000000000000000000000000000000000000000000000520000000000000000000000000000000000000000000000000000000000000000000000000000000000000000000000000000000000000000000000000000000000000000000000000000000000000000000000000000000000000000000000000000000000000000000000000000000000000000000000000000000000000000000000000000000000000000000000000000000000000000000000000000000000000000000000000000000000000000000000000000000000000000000000000000000000000000000000000000000000000000000000000000000000000000000000000000000000000000000000000000000000000000000000000000000000000000000000000000000000000000000000000000000000000000000000000000000000000000000000000000000000000000000000000000000000000000000000000000000000000000000000000000000000000000000000000000000000000000000000000000000000000000000000000000000000000000000000000000000000000000000000000000000000000000000000000000000000000000000000000000000000000000000000000000000000000000000000000000000000000000000000000000000000000000000000000000000000000000000000000000000000000000000000000000000000000000000000000000000000000000000000000000000000000000000000000000000000000000000000000000000000000000000000000000000000000000000000000000000000000000000000000000000000000000000000000000000000000000000000520000000000000000000000000000000000000000000000000000000000000000000000000000000000000000000000000000000000000000000000000000000000000000000000000000000000000000000000000000000000000000000000000000000000000000000000000000000000000000000000000000000000000000000000000000000000000000000000000000000000000000000000000000000000000000000000000000000000000000000000000000000000000000000000000000000000000000000000000000000000000000000000000000000000000000000000000000000000000000000000000000000000000000000000000000000000000000000000000000000000000000000000000000000000000000000000000000000000000000000000000000000000000000000000000000000000000000000000000000000000000000000000000000000000000000000000000000000000000000000000000000000000000000000000000000000000000000000000000000000000000000000000000000000000000000000000000000000000000000000000000000000000000000000000000000000000000000000000000000000000000000000000000000000000000000000000000052525252525252525252
#048990:0000000000000052005200000000000000000000000000000000000000000000000000000000005200520000000000000000000000000000000000000000005200520000000000000000000000000000000000000000005200520000000000000000000000000000000000000000000000000000000000000000000000000000
#048970:00520000000000005200000000000000
#048980:00005200520000000052520000000000
#0489b0:00000000005200000000005200000000
#0499a0:22
#049941:120000000000000000000000000000000000000000000000000000000000000000000000000000000000000000000000000000000000000000000000000000000000000000000000000000000000000000000000000000000000000000000000000000000000000000000000000000000000000000000000000000000000000000000000000000000000000000000000000000000000000000000000000000000000000000000000000000000000000000000000000000000000000000000000000000000000000000000000000000000000000000000000000000000000000000000000000000000000000000000000000000000000000000000000000000000000000000000000000000000000000000000000000000000000000000000000000000000000000000000000000000000000000000000000000000000000000000000000000000000000000000000000000000000000000000000000000000000000000000000000000000000000000000000000000000000000000000000000000000000000000000000000000000000000000000000000000000000000000000000000000000000000000000000000000000000000000000000000000000000000000000000000000000000000000000000000000000000000000000000000000000000000000000000000000000000000000000000000000000000000000000000000000000000000000000000000000000000000000000000000000000000000000000000000000000000000000000000000000000000000000000000000000000000000000000000000000000000000000000000000000000000000000000000000000000000000000000000000000000000000000000000000000000000000000000000000000000000000000000000000000000000000000000000000000000000000000000000000000000000000000000000000000000000000000000000000000000000000000000000000520000000000000000000000000000000000000000000000000000000000000000000000000000000000000000000000000000000000000000000000000000000000000000000000000000000000000000000000000000000000000000000000000000000000000000000000000000000000000000000000520000000000000000000000000000000000000000000000000000000000000000000000000000000000000000000000000000000000000000000000000000000000000000000000000000000000000000000000000000000000000000000000000000000000000000000000000000000000000000000000000000000000000000000000000000000000000000000000000000000000000000000000000000000000000000000000000000000000000000000000000000000000000000000000000000000000000000000000000000000000000000000000000000000000000000000000000000000000000000000000000000000000000000000000000000000000000000000000000000000000000000000000000000000000000000000000000000000000000000000000000000000000000000000000000000000000000000000000000000000000000000000000000000000000000000000000000000000000000000000000000000000000000000000000000000000000000000000000000000000000000000000000000000000000000000000000000000000000000000000000000000000000000000000000000000000000000000000000000000000000000000000000000000000000000000000000000000000000000000000000000000000000000000000000000000000000000000000000000000000000000000000000000000000000000000000000000000000000000000000000000000000000000000000000000000000000000000000000000000000000000000000000000000000000000000000000000000000000000000000000520000000000000000000000000000000000000000000000000000000000000000000000000000000000000000000000000000000000000000000000000000000000000000000000000000000000000000000000000000000000000000000000000000000000000000000000000000000000000000000000000000000000000000000000000000000000000000000000000000000000000000000000000000000000000000000000000000000000000000000000000000000000000000000000000000000000000000000000000000000000000000000000000000000000000000000000000000000000000000000000000000000000000000000000000000000000000000000000000000000000000000000000000000000000000000000000000000000000000000000000000000000000000000000000000000000000000000000000000000000000000000000000000000000000000000000000000052525252525252525252220000000000000000000000000000000000000000000000000000000000000000000000000000000000000000000000000000000000000000000000000000000000000000000000000000000000000000000000000000000000000000000000000000000000000000000000000000000000000000000000
#049951:0000000000000052005200000000000000000000000000000000000000000000000000000000005200520000000000000000000000000000000000000000005200520000000000000000000000000000000000000000005200520000000000000000000000000000000000000000000000000000000000000000000000000000
#049971:00520000000000005200000000000000
#049961:00005200520000000052520000000000
#049931:00000000005200000000005200000000
