This file was generated by Ched 2.7.0.0.
#TITLE ""
#ARTIST ""
#DESIGNER ""
#DIFFICULTY 0
#PLAYLEVEL
#SONGID ""
#WAVE ""
#WAVEOFFSET 0
#JACKET ""
#REQUEST "ticks_per_beat 480"
#00002: 4
#BPM01: 122
#00008: 01
#TIL00: ""
#VOLUME: ""
#HISPEED 00
#MEASUREHS 00
#01418:1313000000000000
#01415:0000131300000000
#01412:13
#0141b:00000000130000000000001300000000
#01515:13
#01518:0013
#01510:41
#01618:0013000013000000
#01612:0000001300000000
#01615:00130000
#0161b:1300000000000013
#02118:00000000230000130000001300000000
#0211b:13001300000000000013000000001300
#02115:00130000000013000013000023000000
#02112:00130000
#02212:1300001300000000
#0221b:0013
#02215:00001300000000000013000023000000
#02218:00130000230000000000130000000000
#0241b:00000000000000130000000000000000
#02412:00132313
#02418:00000000001300000000130000000000
#02415:2600001300000000
#0241f:11
#02515:2600000000130000
#02518:0000001300000000
#0251b:00130013
#02512:0023
#02618:0000001300001300
#02612:0000130000130000
#02615:2600000023000013
#0261b:00130000
#01215:5313000013000000
#0121b:13000000130000000000001300000000
#01212:00130000
#01218:0000001300000000
#01318:0013000013000000
#01312:13000000130000000000001300000000
#0131b:13130000
#01315:0000001300000000
#01712:13
#01718:00001300000000000000003300000000
#01715:00000013000000000000000000000000
#01719:00000000003300000000330000000000
#0171a:00000000000033000033000000000000
#0171b:00000000000000330000000000000000
#01815:0013
#01818:00000000240000000000001300000000
#01814:24
#01912:13
#0191b:0013
#02712:13000013
#02718:26
#02716:00250000
#02714:0024
#02918:0000001300130000
#02912:00130013
#02915:26000000000000130000000000000000
#0291b:0023
#03018:0000001300000013
#0301b:00132300
#03015:26000000000000130000000013000000
#03012:00000000001300000000130000000000
#02815:26000000001300000000130000000000
#0281b:00132313
#02812:00000000000000130000000000000000
#02818:0000001300000000
#02019:00001300000000000000001300000000
#02015:00130000000000000000000023000000
#02014:00000013000000000000130000000000
#02012:0000001300000000
#02018:00000000230000000013000000000000
#0201a:13
#0201b:0000000000000013
#02013:0013
#02010:0041
#04612:0016000000002600
#04618:0000260000160000
#04616:26
#04614:0026
#04512:0016000026000000
#04518:2600000000160000
#04516:00260000
#04514:00000026
#0431b:0000000000130000
#0431a:0000001300000000
#04319:0013000000000000
#04315:00000026
#04314:0026
#04313:00260000
#04312:26
#04215:0000000000160016
#04218:00260026
#04212:2626
#04112:2600260000160000
#04118:0016000026002600
#03518:00000013000000000000000000000000
#03515:23
#0341b:0000230000000013
#03415:0000230000130000
#03418:23000023
#03412:2323
#03312:00000000001300000000130000000000
#03315:00001300000000130000000000130000
#03318:00000000130000000013000000000000
#0331b:23000000000000130000000013000000
#03310:41
#03715:00000000130000130000000000130000
#03718:0013000013001300
#0371b:00000000001300000000000000000000
#03712:2300000000130000
#03118:0000003300130000
#03119:00000033000000000000000000000000
#03916:00000000001400000000000000000000
#0041b:13
#00415:0013001300001300
#00418:0000130000130013
#00412:0013
#00410:41
#0051b:13000013
#00512:0000001300000000
#00518:0000130000130000
#00515:0013000013000000
#00715:0000001300000000
#00712:13000013
#0071b:0013000013000000
#00718:00130000
#00612:13
#00618:0013001300001300
#00615:0000130000130013
#0061b:0013
#0101b:00130013
#0101b:00000013
#01012:2600001300000000
#01015:0013
#01018:2600000000130000
#00916:2626
#00912:00260026
#00910:0041
#00814:00260026
#00818:2626
#04412:00260026
#04418:2626
#04018:00260026
#04012:2626
#04010:41
#03618:00260026
#03612:2626
#03212:00260026
#03218:2626
#0321f:21
#03817:00000000003300000000000000000000
#03816:00000000000000000000000000330000
#00019:52005252520052520052520052525252
#00119:52
#00115:5200000052005200520000005200520000005200520000005200520052005252
#00215:52
#00219:52005252520052520052520052525252
#01115:53005353530053530053530053535353
#04915:52005252520052520052520052525252
#04919:52
#04819:52005252520052520052520052525252
#00956:1616
#00952:00160016
#01052:16
#01058:16
#0105b:00130000
#00854:00160016
#00858:1616
#0155b:00000013000000000000000000000000
#01552:00000000000000000000001300000000
#01854:34
#01858:00000000440000000000005300000000
#0125b:00000000000000000000006300000000
#01352:00000000000000000000005300000000
#0145b:00000000000000000000006300000000
#01655:00000000000000000000001300000000
#01958:00000013000000000000000000000000
#01955:00000000000000000000001300000000
#02455:16
#02452:00000053
#02555:16
#0255b:00000063
#02655:16
#02855:16
#0285b:00000063
#02952:00000053
#02955:16
#03055:16
#02752:00000053
#04658:00460000
#04656:46
#04652:00000036
#04654:0036
#04556:00460000
#04558:46
#04554:00000036
#04552:0036
#04452:00360036
#04458:4646
#04355:00000036
#04354:0036
#04353:00360000
#04352:36
#04258:00460046
#04252:3636
#04158:00004646
#04152:36360000
#04058:00460046
#04052:3636
#03658:00160016
#03652:1616
#03252:00160016
#03258:1616
#03558:00000053000000000000000000000000
#03158:0000000000230000
#03956:00000000005400000000000000000000
#0045b:13
#00452:0013
#0055b:13000013
#00752:13000013
#0075b:0013
#00652:13
#0065b:0013
#012380:00000000000000000013000000002300
#0123b0:00000000000000000000003300000000
#013350:00000000000000000013000000002300
#013320:00000000000000000000003300000000
#014380:00000000000000130000000000002300
#0143b0:00000000000000000033003300000000
#0153b0:00130023000000000000000000000000
#015320:00000000000000000013002300000000
#016350:00000000000000000013002300000000
#017380:00000000130000000000003323000000
#017390:00000000003300000000330000000000
#0173a0:00000000000033000033000000000000
#0173b0:00000000000000333300000000000000
#018380:00000000000000000013003300000000
#0183b0:0000000000000023
#019380:00130023000000000000000000000000
#019350:00000000000000000013002300000000
#024320:00000013
#025350:26
#0253b0:00000013
#026350:26
#027320:00000013
#028350:26
#0283b0:00000013
#029350:26
#029320:00000013
#030350:26
#0313b0:13
#031390:00000033000000000000000000000000
#031380:0000003333330000
#032380:26
#035380:00130033000000000000000000000000
#0353b0:00000023
#0383b0:1323
#0383a0:00330000000000000000000000000000
#038390:0033000000000000
#038380:00000033000000000000000000000000
#038370:00000000333300000000000000000000
#038321:0013
#038331:00000000000000000033000000000000
#038341:0000000000330000
#038351:00000000000000000000003300000000
#038361:00000000000000000000000033330000
#039321:23
#039360:14343434343400000000000000000000
#0393b0:0000000000000023
#0473b0:13230000
#047321:00132300
#047380:00001323
#047351:00000013
#048351:23
#000990:12
#001990:22
#001951:12
#002951:22
#002990:12000000000000000000000000000022
#011950:13
#012950:23
#048990:12
#049990:22
#049951:12000000000000000000000000000022
