This file was generated by Ched 2.7.0.0.
#TITLE ""
#ARTIST ""
#DESIGNER ""
#DIFFICULTY 0
#PLAYLEVEL
#SONGID ""
#WAVE ""
#WAVEOFFSET 0
#JACKET ""
#REQUEST "ticks_per_beat 480"
#00002: 4
#BPM01: 122
#00008: 01
#TIL00: ""
#VOLUME: ""
#HISPEED 00
#MEASUREHS 00
#0311a:0000000000140000
#00412:00140014
#0041a:2424
#00410:41
#00516:00140000
#00512:0014
#0051a:24000024
#0061a:00140014
#00612:2424
#00716:00140000
#00712:24000024
#0071a:0024
#01018:0014
#01014:00000014
#0101a:24
#01012:00240000
#01214:00140000
#01218:0014
#01212:00000014
#01318:14
#01312:00140000
#0131a:0014
#01314:00000014
#0141a:14
#01412:00140000
#01418:0014
#01414:00000014
#0161a:14000014
#01616:00140000
#01612:0014
#01712:14000014
#01716:00140000
#0171a:0014
#0181a:0014
#01812:00000014
#01818:24
#01814:00240000
#02412:00140000
#02418:26001414
#02414:0000000000140000
#0241f:11
#0251a:00140000
#02514:00001414
#02518:0000000000140000
#02512:26
#02612:00140000
#02616:0014
#0261a:00000014
#02618:26
#02714:14
#0271a:00140000
#02712:0014
#02718:00000014
#0281a:00140000
#02814:00001414
#02818:0000000000140000
#02812:26
#02912:00140000
#02918:26001414
#02914:0000000000140000
#0301a:00140000
#03016:0014
#03012:26000014
#03212:00140000
#03216:0014
#0321a:00000014
#03218:24
#0321f:21
#03412:0014
#03416:00000014
#03414:24
#03418:00240000
#0361a:00140000
#03616:0014
#03612:00000014
#03614:24
#0381a:0014
#03816:00000014
#03818:24
#03814:00240000
#04618:1414
#04612:1414
#04614:00140014
#0461a:00140014
#04214:1414
#0421a:1414
#04218:00140014
#04212:00140014
#04718:1616
#04712:00160016
#0081a:24
#00816:00240024
#00812:0024
#04018:2626
#04012:00260026
#04010:41
#0091a:24
#00916:00240024
#00912:0024
#00910:0041
#04412:2626
#04418:00260026
#04313:24
#04315:00240000
#04317:0024
#04319:00000024
#00018:00000000000000000000000000343434
#0011a:00000000000000000000000000343434
#03518:0034
#03519:00340000
#03913:00340000
#0481a:00000000000000000000000000343434
#03310:41
#02010:0041
#01510:41
#0491a:00000000000000000000000000000054
#0105a:14
#02458:16
#03258:14
#0125a:14
#01858:14
#01854:00140000
#02658:16
#02552:16
#02852:16
#03052:16
#02958:16
#0315a:0000000000640000
#03654:14
#04058:1616
#04052:00160016
#04452:1616
#04458:00160016
#0003a0:14003434340034340034340034000000
#000380:00000000000000000000000000343434
#001380:34003434340034340034340034000000
#0013a0:00000000000000000000000000343434
#0023a0:34003434340034340034340034343434
#0033a0:24
#0113a0:14003434340034340034340034343434
#0123a0:24
#0153a0:14240000
#015320:00001424
#019380:14240000
#019340:00001424
#0203a0:14000024
#020380:00343400
#021320:14000024
#021340:00343400
#022380:14000024
#0223a0:00343400
#0313a0:14000034000034003400340000000000
#032380:24
#033320:14
#033340:00240000
#0333a0:0014
#033380:00000024
#0353a0:14
#035390:00340000
#035380:00003424
#0373a0:14
#037380:00240000
#037320:0014
#037340:00000024
#039320:14
#039330:00340000
#039340:0024
#041380:14
#0413a0:00240000
#041340:0014
#041320:00000024
#045340:14
#045320:00240000
#045380:0014
#0453a0:00000024
#048380:14003434340034340034340034000000
#0483a0:00000000000000000000000000343434
#0493a0:34003434340034340034340034343424
