This file was generated by Ched 2.7.0.0.
#TITLE ""
#ARTIST ""
#DESIGNER ""
#DIFFICULTY 0
#PLAYLEVEL
#SONGID ""
#WAVE ""
#WAVEOFFSET 0
#JACKET ""
#REQUEST "ticks_per_beat 480"
#00002: 4
#BPM01: 174
#00008: 01
#TIL00: ""
#VOLUME: ""
#HISPEED 00
#MEASUREHS 00
#0221a:14
#02314:14
#02418:14
#02512:14
#0261a:14
#0271a:14
#02814:14
#02914:14
#03018:14
#03118:14
#03412:0016
#03418:26
#03410:41
#03518:16
#03512:0016
#03618:16
#03612:0016
#03718:16
#03712:0016
#03818:1616
#03912:1616
#04018:1616
#04112:1616
#04312:0016
#04518:0016
#04712:0016
#05512:14
#05618:14
#05714:14
#05812:0016
#05818:26
#0581f:21
#05918:1616
#05910:41
#06012:16
#06018:0016
#06112:1616
#06218:16
#06212:0016
#06318:16
#06312:0016
#06418:1616
#06512:1616
#07312:16
#09812:14
#09912:14
#10018:14
#10118:14
#01712:14
#09412:14
#09518:14
#09614:14
#0971a:14
#10214:14
#10314:14
#0501f:11
#03212:24
#1041a:24
#01810:41
#09010:41
#07410:41
#01010:41
#002320:14
#004320:24
#006380:14
#008380:24
#010340:14
#012340:24
#0143a0:14
#0163a0:24
#018330:14
#019330:24
#018391:14
#019391:24
#020331:14
#021331:24
#020390:14
#021390:24
#032320:14
#033320:24
#042380:16
#043380:26
#044320:16
#045320:26
#046380:16
#047380:26
#048320:16
#049320:26
#0503a0:14
#052380:34
#0543a0:24
#066380:1626
#067320:1626
#068380:1626
#069320:1626
#070380:16
#071360:36
#072380:26
#0743a0:14
#0753a0:24
#076340:14
#077340:24
#078380:14
#079380:24
#080320:14
#081320:24
#082380:14
#083380:24
#084340:14
#085340:24
#0863a0:14
#0873a0:24
#088320:14
#089320:24
#090390:14
#091390:24
#090331:14
#091331:24
#092391:14
#093391:24
#092330:14
#093330:24
#1043a0:14
#1053a0:34000024
